(Psytrance) [STREAM] Dekel - Ancient Future - 2021, FLAC (tracks), lossless

Reply to topic
DL-List and Torrent activity
Size:  391 MB   |    Registered:  5 days   |    Completed:  0 times

Seeder not seen: Never

 
   
 
 
Author Message

star21 ®

Gender: Female

Longevity: 5 years 5 months

Posts: 262231

Location: Екатеринбург

Post 07-Apr-2021 19:46

[Quote]


Dekel

Ancient Future




• Жанр: Psytrance
• Носитель: STREAM
• Год издания: 2021
• Издатель: Stereo Society
• Страна: Israel
• Аудиокодек: FLAC (*.flac)
• Тип рипа: tracks
• Продолжительность: 01:10:41
• Источник: deezer
• Наличие сканов: frontTracklist: 01 - Ceremony (00:09:43)
02 - Hypnotize Pt. 2 (00:07:35)
03 - Free Diving (00:07:56)
04 - Phoenix (00:09:49)
05 - Sons of Earth (00:07:46)
06 - Formation (00:09:27)
07 - Primordial Black Hole (00:09:27)
08 - Ancient Future (00:08:55)

• Лог DRM •

foobar2000 1.4.2 / Dynamic Range Meter 1.1.1log date: 2021-03-23 09:36:52--------------------------------------------------------------------------------Analyzed: Dekel, Freedom Fighters / Ancient Future (1)          Dekel, Ilan Or / Ancient Future (2)          Dekel, Out of Orbit / Ancient Future (3)          Dekel, satcha / Ancient Future (4-5)          Dekel / Ancient Future (6-8)--------------------------------------------------------------------------------DR         Peak         RMS     Duration Track--------------------------------------------------------------------------------DR4       -0.10 dB    -5.55 dB      9:27 06-FormationDR4       -0.10 dB    -5.64 dB      7:46 05-Sons of EarthDR4       -0.10 dB    -5.49 dB      7:35 02-Hypnotize Pt. 2DR5       -0.10 dB    -7.19 dB      9:43 01-CeremonyDR4       -0.10 dB    -5.84 dB      7:56 03-Free DivingDR5       -0.10 dB    -6.18 dB      9:50 04-PhoenixDR4       -0.10 dB    -5.87 dB      9:28 07-Primordial Black HoleDR4       -0.10 dB    -5.94 dB      8:56 08-Ancient Future--------------------------------------------------------------------------------Number of tracks:  8Official DR value: DR4Samplerate:        44100 HzChannels:          2Bits per sample:   16Bitrate:           791 kbpsCodec:             FLAC================================================================================

• Лог проверки качества •

-----------------------DON'T MODIFY THIS FILE-----------------------PERFORMER: auCDtect Task Manager, ver. 1.5.1RC3 build 1.5.1.4Copyright (c) 2008-2010 y-soft. All rights reservedhttp://y-soft.orgANALYZER: auCDtect: CD records authenticity detector, version 0.8.2Copyright (c) 2004 Oleg Berngardt. All rights reserved.Copyright (c) 2004 Alexander Djourik. All rights reserved.FILE: 08 - Ancient Future.flac  Size: 53055751 Hash: 7A9FAFD577F287DBD6ED04D5ABC0E6F7 Accuracy: -m40  Conclusion: CDDA 100%  Signature: 9FAC384FF628E2BE9B0628564D576E5EE874756CFILE: 07 - Primordial Black Hole.flac  Size: 55130715 Hash: EBE6888E13D663CA88ACE8D22B05718C Accuracy: -m40  Conclusion: CDDA 100%  Signature: D718D7BB65CEE439E664C8F6A9689A9CA15849D1FILE: 06 - Formation.flac  Size: 53462112 Hash: 30113659296D328CDCEFA5E1251CE7E4 Accuracy: -m40  Conclusion: CDDA 100%  Signature: CADB9B7F10B1E1B9C90B528D2C6F683256D5956BFILE: 05 - Sons of Earth.flac  Size: 44032874 Hash: 3E930D648D44CE7E471D6A031B4A89D2 Accuracy: -m40  Conclusion: CDDA 100%  Signature: EA453E515C8869C1AF83C0DECFAE3F5D4E5B3A8BFILE: 04 - Phoenix.flac  Size: 58601441 Hash: 5A6EE99AB237BA09576D347D737CAE02 Accuracy: -m40  Conclusion: CDDA 100%  Signature: 64DDBEB4C3E8A4D9BCD61E35533FED568117191DFILE: 03 - Free Diving.flac  Size: 45813744 Hash: 76161301C134E89CCE8536C3C07E543E Accuracy: -m40  Conclusion: CDDA 100%  Signature: BB8F83367D7C4AE0A53FE8BA64E56C627DC7DC90FILE: 02 - Hypnotize Pt. 2.flac  Size: 44984741 Hash: 3A53DD5EED2614F2E05082534CBD8180 Accuracy: -m40  Conclusion: CDDA 100%  Signature: A280F00483CB3D9246A62D978C2DA218B838BEE8FILE: 01 - Ceremony.flac  Size: 53939972 Hash: 99E193D29EB69077C9DEF8A5D8282119 Accuracy: -m40  Conclusion: CDDA 100%  Signature: 5D305FCFAFAD223CEF4B43BFBDBFC04FC6D86538

To download the content you need:
1. Download and install torrent client [for Windows] or for mobile system
2. Click on [Download]
Attention.
If the test YOU are NOT a ROBOT - does not work, then You are using an outdated browser.
Install the current browser and click on [Download]

Do not work with Yandex browser. Uploading files to them is erroneous.
Security: torrent client is allowed by Kaspersky.

[sexgirl.su].t734061.torrent 
Torrent: Registered [ 2021-04-07 19:45 ] · 718D0A956D7AD329199CD8A28257C647579AC378

Download .torrent

Download

16 KB

Status: checked
Completed: 0 times
Size: 391 MB
terms.php
[Profile] [PM]
Display posts:    
Reply to topic

Current time is: 12-Apr 20:18

All times are UTC ± 0



You cannot post new topics in this forum
You cannot reply to topics in this forum
You cannot edit your posts in this forum
You cannot delete your posts in this forum
You cannot vote in polls in this forum
You cannot attach files in this forum
You can download files in this forum