(Hip-Hop / Rap) [WEB] Megan Thee Stallion - Suga (Chopnotslop Remix) - 2020, FLAC (tracks), lossless

Reply to topic
DL-List and Torrent activity
Size:  199 MB   |    Registered:  1 month 12 days   |    Completed:  0 times

Seeder not seen: Never

 
   
 
 
Author Message

star21 ®

Gender: Female

Longevity: 5 years 5 months

Posts: 262231

Location: Екатеринбург

Post 28-Feb-2021 13:31

[Quote]

Megan Thee Stallion - Suga (Chopnotslop Remix) [2020] [FLAC] [WEB] Жанр: Hip-Hop / Rap
Носитель: WEB https://uk.7digital.com/artist/megan-thee-stallion/release/suga-chopnotslop-remix...C16%2C17%2C9%2C2
Страна-производитель диска (релиза): United States
Год издания: 2020
Издатель (лейбл): 300 Entertainment
Страна исполнителя (группы): United States
Аудиокодек: FLAC (*.flac)
Тип рипа: tracks
Продолжительность: 0:32:50:00
Источник: собственная покупка
Наличие сканов в содержимом раздачи: нет
Треклист:
01 Suga Intro (Chopnotslop Remix)
02 Savage (Chopnotslop Remix)
03 B.I.T.C.H. (Chopnotslop Remix)
04 Captain Hook (Chopnotslop Remix)
05 What I Need (Chopnotslop Remix)
06 Interlude (Chopnotslop Remix)
07 Stop Playing (feat. Gunna) (Chopnotslop Remix)
08 Crying In The Car (Chopnotslop Remix)
09 Rich (Chopnotslop Remix)
10 Hit My Phone (feat. Kehlani) (Chopnotslop Remix)
11 Ain't Equal (Chopnotslop Remix)

Лог проверки качества

foobar2000 1.5.3 / Dynamic Range Meter 1.1.1log date: 2020-10-31 12:18:56--------------------------------------------------------------------------------Analyzed: Megan Thee Stallion, Gunna / Suga (Chopnotslop Remix) (1)          Megan Thee Stallion, Kehlani / Suga (Chopnotslop Remix) (2)          Megan Thee Stallion / Suga (Chopnotslop Remix) (3-11)--------------------------------------------------------------------------------DR         Peak         RMS     Duration Track--------------------------------------------------------------------------------DR6        0.00 dB    -8.69 dB      3:40 07-Stop Playing (feat. Gunna) (Chopnotslop Remix)DR8        0.00 dB   -10.49 dB      2:49 10-Hit My Phone (feat. Kehlani) (Chopnotslop Remix)DR6        0.00 dB    -8.66 dB      1:34 01-Suga Intro (Chopnotslop Remix)DR7        0.00 dB   -10.01 dB      3:40 02-Savage (Chopnotslop Remix)DR5        0.00 dB    -7.80 dB      5:00 03-B.I.T.C.H. (Chopnotslop Remix)DR6        0.00 dB    -7.40 dB      3:14 04-Captain Hook (Chopnotslop Remix)DR5        0.00 dB    -6.94 dB      4:15 05-What I Need (Chopnotslop Remix)DR8        0.00 dB    -8.93 dB      0:35 06-Interlude (Chopnotslop Remix)DR6        0.00 dB    -8.20 dB      3:00 08-Crying In The Car (Chopnotslop Remix)DR9        0.00 dB   -10.78 dB      2:29 09-Rich (Chopnotslop Remix)DR7        0.00 dB    -9.20 dB      2:39 11-Ain't Equal (Chopnotslop Remix)--------------------------------------------------------------------------------Number of tracks:  11Official DR value: DR7Samplerate:        44100 HzChannels:          2Bits per sample:   16Bitrate:           810 kbpsCodec:             FLAC================================================================================

проверка звука без потерь

Lossless Audio Checker 2.0.7 logfile from Saturday 31 October 2020 12:22:50 PMFile:   C:\Music\Megan Thee Stallion\Megan Thee Stallion - Suga (Chopnotslop Remix) [2020] [FLAC] (WEB)\01 Suga Intro (Chopnotslop Remix).flacResult: CleanFile:   C:\Music\Megan Thee Stallion\Megan Thee Stallion - Suga (Chopnotslop Remix) [2020] [FLAC] (WEB)\02 Savage (Chopnotslop Remix).flacResult: CleanFile:   C:\Music\Megan Thee Stallion\Megan Thee Stallion - Suga (Chopnotslop Remix) [2020] [FLAC] (WEB)\03 B.I.T.C.H. (Chopnotslop Remix).flacResult: CleanFile:   C:\Music\Megan Thee Stallion\Megan Thee Stallion - Suga (Chopnotslop Remix) [2020] [FLAC] (WEB)\04 Captain Hook (Chopnotslop Remix).flacResult: UpsampledFile:   C:\Music\Megan Thee Stallion\Megan Thee Stallion - Suga (Chopnotslop Remix) [2020] [FLAC] (WEB)\05 What I Need (Chopnotslop Remix).flacResult: UpsampledFile:   C:\Music\Megan Thee Stallion\Megan Thee Stallion - Suga (Chopnotslop Remix) [2020] [FLAC] (WEB)\06 Interlude (Chopnotslop Remix).flacResult: UpsampledFile:   C:\Music\Megan Thee Stallion\Megan Thee Stallion - Suga (Chopnotslop Remix) [2020] [FLAC] (WEB)\07 Stop Playing (feat. Gunna) (Chopnotslop Remix).flacResult: UpsampledFile:   C:\Music\Megan Thee Stallion\Megan Thee Stallion - Suga (Chopnotslop Remix) [2020] [FLAC] (WEB)\08 Crying In The Car (Chopnotslop Remix).flacResult: UpsampledFile:   C:\Music\Megan Thee Stallion\Megan Thee Stallion - Suga (Chopnotslop Remix) [2020] [FLAC] (WEB)\09 Rich (Chopnotslop Remix).flacResult: UpsampledFile:   C:\Music\Megan Thee Stallion\Megan Thee Stallion - Suga (Chopnotslop Remix) [2020] [FLAC] (WEB)\10 Hit My Phone (feat. Kehlani) (Chopnotslop Remix).flacResult: UpsampledFile:   C:\Music\Megan Thee Stallion\Megan Thee Stallion - Suga (Chopnotslop Remix) [2020] [FLAC] (WEB)\11 Ain't Equal (Chopnotslop Remix).flacResult: Upsampled

To download the content you need:
1. Download and install torrent client [for Windows] or for mobile system
2. Click on [Download]
Attention.
If the test YOU are NOT a ROBOT - does not work, then You are using an outdated browser.
Install the current browser and click on [Download]

Do not work with Yandex browser. Uploading files to them is erroneous.
Security: torrent client is allowed by Kaspersky.

[sexgirl.su].t726260.torrent 
Torrent: Registered [ 2021-02-28 13:30 ] · 2C20EFBB4BDFA42578551819F4E350646DA781FD

Download .torrent

Download

17 KB

Status: checked
Completed: 0 times
Size: 199 MB
terms.php
[Profile] [PM]
Display posts:    
Reply to topic

Current time is: 12-Apr 18:05

All times are UTC ± 0



You cannot post new topics in this forum
You cannot reply to topics in this forum
You cannot edit your posts in this forum
You cannot delete your posts in this forum
You cannot vote in polls in this forum
You cannot attach files in this forum
You can download files in this forum