Великие беглецы / The Great Escapists / Сезон: 1 / Выпуски 1-6 (6) [2021, США, Приключения, WEB-DL 1080p] MVO (AlexFilm) + Original + Sub (Rus, Eng)

Reply to topic
DL-List and Torrent activity
Size:  16.72 GB   |    Registered:  17 days   |    Completed:  0 times

Seeder not seen: Never

 
   
 
 
Author Message

star21 ®

Gender: Female

Longevity: 5 years 4 months

Posts: 262231

Location: Екатеринбург

Post 16-Feb-2021 22:51

[Quote]

Великие беглецы | The Great Escapists Год выпуска: 2021
Страна: США
Жанр: Приключения
Продолжительность: ~ 00:47:00Перевод: Профессиональный (многоголосый закадровый) |
AlexFilm
Режиссёр: Неизвестно
В ролях: Ричард Хаммонд, Тори Белечи и др.Описание: Ричард Хаммонд и Тори Белечи терпят кораблекрушение и оказываются на необитаемом острове. Вооружённые только своими мозгами и тем, что было на судне, Хаммонд и Белечи постараются выжить на острове и построить собственную страну чудес с различными изобретениями — от необычных транспортных средств до гидроэнергетического водяного колеса.
Ссылка на предыдущие и альтернативные раздачи «The Great Escapists»
Качество: WEB-DL 1080p
Формат: MKV
Видео: AVC, 1920x1080 (16:9), 25 fps, ~8200 Kbps
Аудио №1: AC3, 48,0 kHz, 6 ch, 384 kbps | AlexFilm
Аудио №2: AC3, 48,0 kHz, 6 ch, 640 kbps | Original
Субтитры: Русские (Forced, Full |Amazon|, английские (SDH)Реклама:
Отсутствует
Исходник: The.Great.Escapists.S01.1080p.AMZN.WEB-DL.DDP5.1.x264-WHOSNEXT

Список серий

01. Ship Wrecked / Глава 1: Потерпевшие кораблекрушение
02. Power Up / Глава 2: Электрификация
03. Ahoy There / Эй, на борту
04. Fireworks / Салют
05. War games / Военные игры
06. Lift Off / Глава 6: На взлёт

MediaInfo

Complete name : D:\Shows\The_Great_Escapists_(s01)_AlexFilm_1080p\The.Great.Escapists.2021.S01E01.Ship.Wrecked.1080p.AMZN.WEB-DL.DD5.1.x264-WHOSNEXT_EniaHD.mkv
Format : Matroska
Format version : Version 4
File size : 2.96 GiB
Duration : 46 min 18 s
Overall bit rate : 9 166 kb/s
Encoded date : UTC 2021-01-30 08:42:23
Writing application : mkvmerge v31.0.0 ('Dolores In A Shoestand') 64-bit
Writing library : libebml v1.3.6 + libmatroska v1.4.9Video
ID : 1
Format : AVC
Format/Info : Advanced Video Codec
Format profile : High@L4
Format settings : CABAC / 4 Ref Frames
Format settings, CABAC : Yes
Format settings, Reference : 4 frames
Codec ID : V_MPEG4/ISO/AVC
Duration : 46 min 18 s
Bit rate mode : Constant
Bit rate : 8 139 kb/s
Nominal bit rate : 10 000 kb/s
Width : 1 920 pixels
Height : 1 080 pixels
Display aspect ratio : 16:9
Frame rate mode : Constant
Frame rate : 25.000 FPS
Color space : YUV
Chroma subsampling : 4:2:0
Bit depth : 8 bits
Scan type : Progressive
Bits/(Pixel*Frame) : 0.157
Stream size : 2.63 GiB (89%)
Title : Release by EniaHD
Default : Yes
Forced : No
Color range : Limited
Color primaries : BT.709
Transfer characteristics : BT.709
Matrix coefficients : BT.709Audio #1
ID : 2
Format : AC-3
Format/Info : Audio Coding 3
Commercial name : Dolby Digital
Codec ID : A_AC3
Duration : 46 min 18 s
Bit rate mode : Constant
Bit rate : 384 kb/s
Channel(s) : 6 channels
Channel layout : L R C LFE Ls Rs
Sampling rate : 48.0 kHz
Frame rate : 31.250 FPS (1536 SPF)
Compression mode : Lossy
Stream size : 127 MiB (4%)
Title : AlexFilm
Language : Russian
Service kind : Complete Main
Default : Yes
Forced : NoAudio #2
ID : 3
Format : AC-3
Format/Info : Audio Coding 3
Commercial name : Dolby Digital
Codec ID : A_AC3
Duration : 46 min 18 s
Bit rate mode : Constant
Bit rate : 640 kb/s
Channel(s) : 6 channels
Channel layout : L R C LFE Ls Rs
Sampling rate : 48.0 kHz
Frame rate : 31.250 FPS (1536 SPF)
Compression mode : Lossy
Stream size : 212 MiB (7%)
Language : English
Service kind : Complete Main
Default : No
Forced : NoText #1
ID : 4
Format : UTF-8
Codec ID : S_TEXT/UTF8
Codec ID/Info : UTF-8 Plain Text
Duration : 1 s 320 ms
Bit rate : 48 b/s
Count of elements : 1
Stream size : 8.00 Bytes (0%)
Title : Forced
Language : Russian
Default : Yes
Forced : NoText #2
ID : 5
Format : UTF-8
Codec ID : S_TEXT/UTF8
Codec ID/Info : UTF-8 Plain Text
Duration : 44 min 51 s
Bit rate : 136 b/s
Count of elements : 849
Stream size : 44.7 KiB (0%)
Title : Full |Amazon|
Language : Russian
Default : No
Forced : NoText #3
ID : 6
Format : UTF-8
Codec ID : S_TEXT/UTF8
Codec ID/Info : UTF-8 Plain Text
Duration : 46 min 3 s
Bit rate : 87 b/s
Count of elements : 951
Stream size : 29.4 KiB (0%)
Title : SDH
Language : English
Default : No
Forced : No

Скриншоты

08.02.2021Добавлен заключительный 6 выпуск!
Сезон закончен.
Информация о продлении или закрытии шоу на данный момент отсутствует.

To download the content you need:
1. Download and install torrent client [for Windows] or for mobile system
2. Click on [Download]
Attention.
If the test YOU are NOT a ROBOT - does not work, then You are using an outdated browser.
Install the current browser and click on [Download]

Do not work with Yandex browser. Uploading files to them is erroneous.
Security: torrent client is allowed by Kaspersky.

[sexgirl.su].t722901.torrent 
Torrent: Registered [ 2021-02-16 22:50 ] · 2828A357EB2B3E88ABCA06DC91462850D80BE758

Download .torrent

Download

22 KB

Status: checked
Completed: 0 times
Size: 16.72 GB
terms.php
[Profile] [PM]
Display posts:    
Reply to topic

Current time is: 06-Mar 04:05

All times are UTC ± 0



You cannot post new topics in this forum
You cannot reply to topics in this forum
You cannot edit your posts in this forum
You cannot delete your posts in this forum
You cannot vote in polls in this forum
You cannot attach files in this forum
You can download files in this forum