Топ-аэробика 2002: уроки Жанин Салибы / Jan\'s Hip Hop [1998, Франция, VHSRip]

Reply to topic
DL-List and Torrent activity
Size:  555 MB   |    Registered:  16 days   |    Completed:  0 times

Seeder not seen: Never

 
   
 
 
Author Message

star21 ®

Gender: Female

Longevity: 5 years 3 months

Posts: 262231

Location: Екатеринбург

Post 16-Feb-2021 11:31

[Quote]

Топ-аэробика 2002: уроки Жанин Салибы / Jan's Hip Hop Страна: Франция
Год выпуска: 1998
Продолжительность: 00:46:15
Перевод: Одноголосый закадровый
Язык: французский
Русские субтитры: нет
Описание: Жанин Салиба — уроженка Ямайки, с четырёхлетнего возраста занималась спортивными танцами. В 10 лет — обладательница Первой премии в показательных выступлениях в рамках Открытого первенства среди колледжей Америки. С 14 лет начала профессиональную карьеру в фитнесе и аэробике (стиль кардио-фанк). В 18 лет — абсолютная чемпионка Франции по аэробике среди профессионалов. С 2000 года издаёт собственный журнал о спортивных танцах и аэробике. Владелица собственной студии фитнеса в Марселе.
Данная программа является новым направлением в мире аэробики. Она разработана Жанин специально для собственной студии и получила высокие оценки среди профессионалов.Качество видео: VHSRip
Формат видео: AVI
Видео: XviD, 640x480, 1473 kbps, 25 fps
Аудио: MP3, 192 kbps, 2 ch, 48 kHzОпубликовал TopAero2002 для RuTracker.org.

MediaInfo

General
Complete name : ТОП-аэробика 2002.avi
Format : AVI
Format/Info : Audio Video Interleave
File size : 555 MiB
Duration : 46 min 15 s
Overall bit rate : 1 678 kb/s
Writing application : Lavf57.41.100Video
ID : 0
Format : MPEG-4 Visual
Format profile : Simple@L3
Format settings, BVOP : No
Format settings, QPel : No
Format settings, GMC : No warppoints
Format settings, Matrix : Default (H.263)
Codec ID : XVID
Codec ID/Hint : XviD
Duration : 46 min 15 s
Bit rate : 1 473 kb/s
Width : 640 pixels
Height : 480 pixels
Display aspect ratio : 4:3
Frame rate : 25.000 FPS
Color space : YUV
Chroma subsampling : 4:2:0
Bit depth : 8 bits
Scan type : Progressive
Compression mode : Lossy
Bits/(Pixel*Frame) : 0.192
Stream size : 487 MiB (88%)
Writing library : XviD 65Audio
ID : 1
Format : MPEG Audio
Format version : Version 1
Format profile : Layer 3
Mode : Joint stereo
Mode extension : MS Stereo
Codec ID : 55
Codec ID/Hint : MP3
Duration : 46 min 15 s
Bit rate mode : Constant
Bit rate : 192 kb/s
Channel(s) : 2 channels
Sampling rate : 48.0 kHz
Compression mode : Lossy
Stream size : 63.5 MiB (11%)
Alignment : Aligned on interleaves
Interleave, duration : 24 ms (0.60 video frame)
Interleave, preload duration : 24 ms
Writing library : LAME3.99.5

Кассета с двух сторон

To download the content you need:
1. Download and install torrent client [for Windows] or for mobile system
2. Click on [Download]
Attention.
If the test YOU are NOT a ROBOT - does not work, then You are using an outdated browser.
Install the current browser and click on [Download]

Do not work with Yandex browser. Uploading files to them is erroneous.
Security: torrent client is allowed by Kaspersky.

[sexgirl.su].t722510.torrent 
Torrent: Registered [ 2021-02-16 11:30 ] · AC642AEA0E0B442A4D408EE77DA565426DFD494B

Download .torrent

Download

11 KB

Status: checked
Completed: 0 times
Size: 555 MB
terms.php
[Profile] [PM]
Display posts:    
Reply to topic

Current time is: 04-Mar 22:47

All times are UTC ± 0



You cannot post new topics in this forum
You cannot reply to topics in this forum
You cannot edit your posts in this forum
You cannot delete your posts in this forum
You cannot vote in polls in this forum
You cannot attach files in this forum
You can download files in this forum