(Acoustic, Spanish Guitar) [CD] Antonio De Lucena - Guitarra Clasica Espanola - 1995, FLAC (image+.cue), lossless

Reply to topic
DL-List and Torrent activity
Size:  215 MB   |    Registered:  23 days   |    Completed:  0 times

Seeder not seen: Never

 
   
 
 
Author Message

star21 ®

Gender: Female

Longevity: 5 years 4 months

Posts: 262231

Location: Екатеринбург

Post 10-Feb-2021 15:36

[Quote]

Antonio De Lucena / Guitarra Clasica Espanola Жанр: Acoustic, Spanish Guitar
Носитель: CD
Страна-производитель диска (релиза): Spain
Год издания: 1995
Издатель (лейбл): Open Records
Номер по каталогу: CD 2065
Аудиокодек: FLAC (*.flac)
Тип рипа: image+.cue
Битрейт аудио: lossless
Продолжительность: 41:10
Источник (релизер): brookman
Наличие сканов в содержимом раздачи: Front, Back, CDТреклист:
01. Concierto de Aranjuez (3:59)
02. Romance Anonimo-Juegos Prohibidos (2:28)
03. Carmen (2:52)
04. La Leyenda del Beso (3:39)
05. Entre dos Aguas (5:55)
06. Granada (3:35)
07. Los Camanilleros (2:37)
08. Capricho Arabe (4:38)
09. El Vito (2:42)
10. Malaguena (4:16)
11. Estudio Cano (2:10)
12. Endecha Preludio (2:19)

Лог создания рипа

Exact Audio Copy V1.0 beta 3 from 29. August 2011EAC extraction logfile from 15. December 2018, 22:01Antonio de Lucena / Guitarra Clasica EspanolaUsed drive  : PIONEER BD-RW   BDR-TD03   Adapter: 0  ID: 1Read mode               : SecureUtilize accurate stream : YesDefeat audio cache      : YesMake use of C2 pointers : NoRead offset correction                      : 667Overread into Lead-In and Lead-Out          : NoFill up missing offset samples with silence : YesDelete leading and trailing silent blocks   : NoNull samples used in CRC calculations       : YesUsed interface                              : Native Win32 interface for Win NT & 2000Used output format              : User Defined EncoderSelected bitrate                : 768 kBit/sQuality                         : HighAdd ID3 tag                     : NoCommand line compressor         : C:\Program Files (x86)\Exact Audio Copy\FLAC\FLAC.EXEAdditional command line options : -6 -V -T "ARTIST=%artist%" -T "TITLE=%title%" -T "ALBUM=%albumtitle%" -T "DATE=%year%" -T "TRACKNUMBER=%tracknr%" -T "GENRE=%genre%" -T "COMMENT=%comment%" -T "BAND=%albuminterpret%" -T "ALBUMARTIST=%albuminterpret%" -T "COMPOSER=%composer%" %haslyrics%--tag-from-file=LYRICS="%lyricsfile%"%haslyrics% -T "DISCNUMBER=%cdnumber%" -T "TOTALDISCS=%totalcds%" -T "TOTALTRACKS=%numtracks%" %hascover%--picture="%coverfile%"%hascover% %source% -o %dest%TOC of the extracted CD     Track |   Start  |  Length  | Start sector | End sector    ---------------------------------------------------------        1  |  0:00.37 |  3:59.00 |        37    |    17961        2  |  3:59.37 |  2:28.00 |     17962    |    29061        3  |  6:27.37 |  2:52.00 |     29062    |    41961        4  |  9:19.37 |  3:39.00 |     41962    |    58386        5  | 12:58.37 |  5:55.00 |     58387    |    85011        6  | 18:53.37 |  3:35.00 |     85012    |   101136        7  | 22:28.37 |  2:37.00 |    101137    |   112911        8  | 25:05.37 |  4:38.00 |    112912    |   133761        9  | 29:43.37 |  2:42.00 |    133762    |   145911       10  | 32:25.37 |  4:16.00 |    145912    |   165111       11  | 36:41.37 |  2:10.00 |    165112    |   174861       12  | 38:51.37 |  2:19.00 |    174862    |   185286Range status and errorsSelected range     Filename C:\Users\Deris\Desktop\kpnemo.eu\ClasGuitEspan\Antonio de Lucena - Guitarra Clasica Espanola.wav     Peak level 99.4 %     Extraction speed 4.3 X     Range quality 100.0 %     Test CRC 2B0C295E     Copy CRC 2B0C295E     Copy OKNo errors occurredAccurateRip summaryTrack  1  accurately ripped (confidence 1)  [E25AAD33]  (AR v2)Track  2  accurately ripped (confidence 1)  [8269E549]  (AR v2)Track  3  accurately ripped (confidence 1)  [EDA28708]  (AR v2)Track  4  accurately ripped (confidence 1)  [AED1F159]  (AR v2)Track  5  accurately ripped (confidence 1)  [28BA574B]  (AR v2)Track  6  accurately ripped (confidence 1)  [156F0319]  (AR v2)Track  7  accurately ripped (confidence 1)  [741FD941]  (AR v2)Track  8  accurately ripped (confidence 1)  [60175F70]  (AR v2)Track  9  accurately ripped (confidence 1)  [74F59C5A]  (AR v2)Track 10  accurately ripped (confidence 1)  [37EAE9BD]  (AR v2)Track 11  accurately ripped (confidence 1)  [914AA5F2]  (AR v2)Track 12  accurately ripped (confidence 1)  [0225F3BF]  (AR v2)All tracks accurately rippedEnd of status report---- CUETools DB Plugin V2.1.3[CTDB TOCID: QIu8Shx9vGvIZYSbJXGWYW.N5To-] found, Submit result: discs with pregaps not supported in this protocol version[ac027299] (16/18) No match[95eb4b50] (01/18) No match[ffe28e31] (01/18) No match==== Log checksum B17EF93ED718CABD05AA432A802D308319A9D1D9C5748C790E2701C56F32452E ====

Содержание индексной карты (.CUE)

REM GENRE FolkREM DATE 1995REM DISCID 9409A60CREM COMMENT "ExactAudioCopy v1.0b3"PERFORMER "Antonio de Lucena"TITLE "Guitarra Clasica Espanola"FILE "Antonio de Lucena - Guitarra Clasica Espanola.flac" WAVE  TRACK 01 AUDIO    TITLE "Concierto de Aranjuez"    PERFORMER "Antonio de Lucena"    INDEX 00 00:00:00    INDEX 01 00:00:37  TRACK 02 AUDIO    TITLE "Romance Anonimo - Juegos Prohibidos"    PERFORMER "Antonio de Lucena"    INDEX 01 03:59:37  TRACK 03 AUDIO    TITLE "Carmen"    PERFORMER "Antonio de Lucena"    INDEX 01 06:27:37  TRACK 04 AUDIO    TITLE "La Leyenda del Beso"    PERFORMER "Antonio de Lucena"    INDEX 01 09:19:37  TRACK 05 AUDIO    TITLE "Entre dos Aguas"    PERFORMER "Antonio de Lucena"    INDEX 01 12:58:37  TRACK 06 AUDIO    TITLE "Granada"    PERFORMER "Antonio de Lucena"    INDEX 01 18:53:37  TRACK 07 AUDIO    TITLE "Los Camanilleros"    PERFORMER "Antonio de Lucena"    INDEX 01 22:28:37  TRACK 08 AUDIO    TITLE "Capricho Arabe"    PERFORMER "Antonio de Lucena"    INDEX 01 25:05:37  TRACK 09 AUDIO    TITLE "El Vito"    PERFORMER "Antonio de Lucena"    INDEX 01 29:43:37  TRACK 10 AUDIO    TITLE "Malaguena"    PERFORMER "Antonio de Lucena"    INDEX 01 32:25:37  TRACK 11 AUDIO    TITLE "Estudio Cano"    PERFORMER "Antonio de Lucena"    INDEX 01 36:41:37  TRACK 12 AUDIO    TITLE "Endecha Preludio"    PERFORMER "Antonio de Lucena"    INDEX 01 38:51:37

DR Log

foobar2000 1.3.13 / Замер динамического диапазона (DR) 1.1.1Дата отчёта:  2018-12-16 23:39:33--------------------------------------------------------------------------------Анализ:   Antonio de Lucena / Guitarra Clasica Espanola--------------------------------------------------------------------------------DR         Пики         RMS           Продолжительность трека--------------------------------------------------------------------------------DR14      -0.61 дБ   -16.88 дБ      3:59 01-Concierto de AranjuezDR11      -1.72 дБ   -15.08 дБ      2:28 02-Romance Anonimo - Juegos ProhibidosDR14      -0.91 дБ   -16.24 дБ      2:52 03-CarmenDR17      -1.02 дБ   -21.64 дБ      3:39 04-La Leyenda del BesoDR14      -1.48 дБ   -17.55 дБ      5:55 05-Entre dos AguasDR14      -0.29 дБ   -17.96 дБ      3:35 06-GranadaDR12      -0.99 дБ   -18.66 дБ      2:37 07-Los CamanillerosDR14      -3.03 дБ   -22.16 дБ      4:38 08-Capricho ArabeDR16      -2.40 дБ   -23.70 дБ      2:42 09-El VitoDR16      -0.05 дБ   -21.53 дБ      4:16 10-MalaguenaDR11      -7.06 дБ   -21.13 дБ      2:10 11-Estudio CanoDR15      -6.59 дБ   -25.12 дБ      2:19 12-Endecha Preludio--------------------------------------------------------------------------------Количество треков: 12Реальные значения DR: DR14Частота:   44100 ГцКаналов:   2Разрядность:   16Битрейт:   584 кбит/сКодек:   FLAC================================================================================
Раздаю до первых 5-ти скачавших, на раздачи не возвращаюсь...

To download the content you need:
1. Download and install torrent client [for Windows] or for mobile system
2. Click on [Download]
Attention.
If the test YOU are NOT a ROBOT - does not work, then You are using an outdated browser.
Install the current browser and click on [Download]

Do not work with Yandex browser. Uploading files to them is erroneous.
Security: torrent client is allowed by Kaspersky.

[sexgirl.su].t721710.torrent 
Torrent: Registered [ 2021-02-10 15:35 ] · 8977CC19EC905F9EFA39327895E552CD2F32E4BE

Download .torrent

Download

18 KB

Status: checked
Completed: 0 times
Size: 215 MB
terms.php
[Profile] [PM]
Display posts:    
Reply to topic

Current time is: 06-Mar 05:16

All times are UTC ± 0



You cannot post new topics in this forum
You cannot reply to topics in this forum
You cannot edit your posts in this forum
You cannot delete your posts in this forum
You cannot vote in polls in this forum
You cannot attach files in this forum
You can download files in this forum