(Score) [CD] Призрак дома на холме / The Haunting (Limited Edition) (Remastered) (by Jerry Goldsmith) - 2017 (1999), FLAC (tracks+.cue), lossless

Reply to topic
DL-List and Torrent activity
Size:  402 MB   |    Registered:  27 days   |    Completed:  0 times

Seeder not seen: Never

 
   
 
 
Author Message

star21 ®

Gender: Female

Longevity: 5 years 3 months

Posts: 262231

Location: Екатеринбург

Post 05-Feb-2021 18:30

[Quote]

Призрак дома на холме / The Haunting Название альбома: The Haunting (Original Motion Picture Soundtrack)
Жанр: Score
Носитель: CD
Источник: 3ost - Lossless Soundtracks (lorddsp)
Композитор: Jerry Goldsmith
Год выпуска диска: 2017
Год выпуска фильма: 1999
Страна-производитель фильма: USA,United Kingdom
Страна-производитель диска: USA
Издатель (лейбл): Varèse Sarabande
Номер по каталогу: VCL 1117 1181
Аудиокодек: FLAC (*.flac)
Тип рипа: tracks+.cue
Битрейт аудио: lossless
Продолжительность: 01:13:08
Наличие сканов в содержимом раздачи: даТреклист:
1. Afraid (00:42)
2. A Place for Everything (03:15)
3. Hill House (00:45)
4. First Look (01:36)
5. In the Dark (00:54)
6. The Carousel (01:01)
7. The Yellow Light (01:16)
8. Nell’s Story (00:49)
9. A Broken String (01:00)
10. Meetings (02:58)
11. Portraits (00:42)
12. The Curtains (03:03)
13. Testing (01:37)
14. Noisy Fireplace (01:33)
15. Welcome Home Eleanor (01:50)
16. Green House Tale / Bloody Feet (03:49)
17. Crane’s Study (02:14)
18. Curly Hair (03:09)
19. The Picture Album (04:48)
20. What Am I Doing (02:20)
21. Out of Bed (01:00)
22. Return to the Carousel / What Do You Want (04:08)
23. Twisted Stairs (01:01)
24. Terror in Bed / Nell’s Room (06:56)
25. Finally Home (09:19)
26. Theme From The Haunting / Home Safe (05:07)
27. Finally Home (album version) (06:16)

Лог создания рипа

Exact Audio Copy V1.1 from 23. June 2015EAC extraction logfile from 4. December 2017, 19:42Jerry Goldsmith / The Haunting DeluxeUsed drive  : Optiarc DVD RW AD-5280S   Adapter: 1  ID: 0Read mode               : SecureUtilize accurate stream : YesDefeat audio cache      : YesMake use of C2 pointers : NoRead offset correction                      : 48Overread into Lead-In and Lead-Out          : NoFill up missing offset samples with silence : YesDelete leading and trailing silent blocks   : NoNull samples used in CRC calculations       : YesUsed interface                              : Native Win32 interface for Win NT & 2000Gap handling                                : Appended to previous trackUsed output format              : User Defined EncoderSelected bitrate                : 768 kBit/sQuality                         : HighAdd ID3 tag                     : NoCommand line compressor         : C:\Program Files (x86)\Exact Audio Copy\FLAC\FLAC.EXEAdditional command line options : -6 -V -T "ARTIST=%artist%" -T "TITLE=%title%" -T "ALBUM=%albumtitle%" -T "DATE=%year%" -T "TRACKNUMBER=%tracknr%" -T "GENRE=%genre%" -T "COMMENT=%comment%" -T "BAND=%albuminterpret%" -T "ALBUMARTIST=%albuminterpret%" -T "COMPOSER=%composer%" %haslyrics%--tag-from-file=LYRICS="%lyricsfile%"%haslyrics% -T "DISCNUMBER=%cdnumber%" -T "TOTALDISCS=%totalcds%" -T "TOTALTRACKS=%numtracks%" %hascover%--picture="%coverfile%"%hascover% %source% -o %dest%TOC of the extracted CD     Track |   Start  |  Length  | Start sector | End sector    ---------------------------------------------------------        1  |  0:00.00 |  0:44.27 |         0    |     3326        2  |  0:44.27 |  3:18.31 |      3327    |    18207        3  |  4:02.58 |  0:47.70 |     18208    |    21802        4  |  4:50.53 |  1:38.49 |     21803    |    29201        5  |  6:29.27 |  0:56.62 |     29202    |    33463        6  |  7:26.14 |  1:03.33 |     33464    |    38221        7  |  8:29.47 |  1:19.01 |     38222    |    44147        8  |  9:48.48 |  0:52.10 |     44148    |    48057        9  | 10:40.58 |  1:03.38 |     48058    |    52820       10  | 11:44.21 |  3:00.61 |     52821    |    66381       11  | 14:45.07 |  0:44.37 |     66382    |    69718       12  | 15:29.44 |  3:06.25 |     69719    |    83693       13  | 18:35.69 |  1:41.00 |     83694    |    91268       14  | 20:16.69 |  1:36.04 |     91269    |    98472       15  | 21:52.73 |  1:53.26 |     98473    |   106973       16  | 23:46.24 |  3:52.00 |    106974    |   124373       17  | 27:38.24 |  2:16.08 |    124374    |   134581       18  | 29:54.32 |  3:11.66 |    134582    |   148972       19  | 33:06.23 |  4:50.28 |    148973    |   170750       20  | 37:56.51 |  2:22.68 |    170751    |   181468       21  | 40:19.44 |  1:02.54 |    181469    |   186172       22  | 41:22.23 |  4:10.24 |    186173    |   204946       23  | 45:32.47 |  1:04.07 |    204947    |   209753       24  | 46:36.54 |  6:59.28 |    209754    |   241206       25  | 53:36.07 |  9:21.66 |    241207    |   283347       26  | 62:57.73 |  5:06.69 |    283348    |   306366       27  | 68:04.67 |  6:16.47 |    306367    |   334613Track  1     Filename C:\01 Afraid.wav     Pre-gap length  0:00:02.00     Peak level 72.9 %     Extraction speed 1.5 X     Track quality 100.0 %     Test CRC 4A58AF2F     Copy CRC 4A58AF2F     Track not present in AccurateRip database     Copy OKTrack  2     Filename C:\02 A Place For Everything.wav     Pre-gap length  0:00:02.21     Peak level 76.9 %     Extraction speed 2.5 X     Track quality 100.0 %     Test CRC FB5E0B80     Copy CRC FB5E0B80     Track not present in AccurateRip database     Copy OKTrack  3     Filename C:\03 Hill House.wav     Pre-gap length  0:00:02.49     Peak level 79.5 %     Extraction speed 1.7 X     Track quality 100.0 %     Test CRC 8FC86BDF     Copy CRC 8FC86BDF     Track not present in AccurateRip database     Copy OKTrack  4     Filename C:\04 First Look.wav     Pre-gap length  0:00:02.44     Peak level 82.5 %     Extraction speed 2.4 X     Track quality 100.0 %     Test CRC F4D125B0     Copy CRC F4D125B0     Track not present in AccurateRip database     Copy OKTrack  5     Filename C:\05 In The Dark.wav     Pre-gap length  0:00:02.48     Peak level 81.0 %     Extraction speed 2.0 X     Track quality 100.0 %     Test CRC 2645AE87     Copy CRC 2645AE87     Track not present in AccurateRip database     Copy OKTrack  6     Filename C:\06 The Carousel.wav     Pre-gap length  0:00:01.66     Peak level 78.3 %     Extraction speed 2.1 X     Track quality 100.0 %     Test CRC E103CCB4     Copy CRC E103CCB4     Track not present in AccurateRip database     Copy OKTrack  7     Filename C:\07 The Yellow Light.wav     Pre-gap length  0:00:02.29     Peak level 85.4 %     Extraction speed 1.8 X     Track quality 99.8 %     Test CRC 14AA60D2     Copy CRC 14AA60D2     Track not present in AccurateRip database     Copy OKTrack  8     Filename C:\08 Nell's Story.wav     Pre-gap length  0:00:02.36     Peak level 50.2 %     Extraction speed 1.5 X     Track quality 99.7 %     Test CRC 016C1847     Copy CRC 016C1847     Track not present in AccurateRip database     Copy OKTrack  9     Filename C:\09 A Broken String.wav     Pre-gap length  0:00:02.42     Peak level 87.9 %     Extraction speed 2.3 X     Track quality 100.0 %     Test CRC A9938466     Copy CRC A9938466     Track not present in AccurateRip database     Copy OKTrack 10     Filename C:\10 Meetings.wav     Pre-gap length  0:00:02.70     Peak level 48.6 %     Extraction speed 3.1 X     Track quality 100.0 %     Test CRC 4F5E756E     Copy CRC 4F5E756E     Track not present in AccurateRip database     Copy OKTrack 11     Filename C:\11 Portraits.wav     Pre-gap length  0:00:02.28     Peak level 48.6 %     Extraction speed 1.4 X     Track quality 99.7 %     Test CRC 8C4C2FD9     Copy CRC 8C4C2FD9     Track not present in AccurateRip database     Copy OKTrack 12     Filename C:\12 The Curtains.wav     Pre-gap length  0:00:02.13     Peak level 99.9 %     Extraction speed 3.3 X     Track quality 100.0 %     Test CRC 180C0103     Copy CRC 180C0103     Track not present in AccurateRip database     Copy OKTrack 13     Filename C:\13 Testing.wav     Pre-gap length  0:00:02.54     Peak level 42.9 %     Extraction speed 3.0 X     Track quality 100.0 %     Test CRC 1654BAB4     Copy CRC 1654BAB4     Track not present in AccurateRip database     Copy OKTrack 14     Filename C:\14 Noisy Fireplace.wav     Pre-gap length  0:00:03.03     Peak level 72.4 %     Extraction speed 3.0 X     Track quality 100.0 %     Test CRC FEBFBBD7     Copy CRC FEBFBBD7     Track not present in AccurateRip database     Copy OKTrack 15     Filename C:\15 Welcome Home Eleanor.wav     Pre-gap length  0:00:02.42     Peak level 84.5 %     Extraction speed 3.2 X     Track quality 100.0 %     Test CRC F8ECEA10     Copy CRC F8ECEA10     Track not present in AccurateRip database     Copy OKTrack 16     Filename C:\16 Green House Tale - Bloody Feet.wav     Pre-gap length  0:00:03.17     Peak level 63.6 %     Extraction speed 3.9 X     Track quality 100.0 %     Test CRC 29728678     Copy CRC 29728678     Track not present in AccurateRip database     Copy OKTrack 17     Filename C:\17 Crane's Study.wav     Pre-gap length  0:00:02.65     Peak level 61.4 %     Extraction speed 3.0 X     Track quality 99.9 %     Test CRC D27EDCA8     Copy CRC D27EDCA8     Track not present in AccurateRip database     Copy OKTrack 18     Filename C:\18 Curly Hair.wav     Pre-gap length  0:00:01.10     Peak level 74.0 %     Extraction speed 3.4 X     Track quality 99.9 %     Test CRC 2867EC88     Copy CRC 2867EC88     Track not present in AccurateRip database     Copy OKTrack 19     Filename C:\19 The Picture Album.wav     Pre-gap length  0:00:02.45     Peak level 94.9 %     Extraction speed 4.4 X     Track quality 100.0 %     Test CRC 7E71E4D7     Copy CRC 7E71E4D7     Track not present in AccurateRip database     Copy OKTrack 20     Filename C:\20 What Am I Doing.wav     Pre-gap length  0:00:02.14     Peak level 48.4 %     Extraction speed 4.0 X     Track quality 100.0 %     Test CRC 70CA6BA6     Copy CRC 70CA6BA6     Track not present in AccurateRip database     Copy OKTrack 21     Filename C:\21 Out Of Bed.wav     Pre-gap length  0:00:02.16     Peak level 91.6 %     Extraction speed 2.3 X     Track quality 99.8 %     Test CRC 121C6C71     Copy CRC 121C6C71     Track not present in AccurateRip database     Copy OKTrack 22     Filename C:\22 Return To The Carousel - What Do You Want.wav     Pre-gap length  0:00:02.47     Peak level 98.7 %     Extraction speed 4.1 X     Track quality 99.9 %     Test CRC B9FDB90A     Copy CRC B9FDB90A     Track not present in AccurateRip database     Copy OKTrack 23     Filename C:\23 Twisted Stairs.wav     Pre-gap length  0:00:01.55     Peak level 98.7 %     Extraction speed 2.5 X     Track quality 99.8 %     Test CRC B13CD413     Copy CRC B13CD413     Track not present in AccurateRip database     Copy OKTrack 24     Filename C:\24 Terror In Bed - Nell's Room.wav     Pre-gap length  0:00:02.60     Peak level 98.7 %     Extraction speed 5.1 X     Track quality 100.0 %     Test CRC A436619D     Copy CRC A436619D     Track not present in AccurateRip database     Copy OKTrack 25     Filename C:\25 Finally Home.wav     Pre-gap length  0:00:02.68     Peak level 98.3 %     Extraction speed 5.5 X     Track quality 100.0 %     Test CRC 77066BEA     Copy CRC 77066BEA     Track not present in AccurateRip database     Copy OKTrack 26     Filename C:\26 Theme From The Haunting - Home Safe.wav     Pre-gap length  0:00:02.49     Peak level 89.3 %     Extraction speed 5.4 X     Track quality 100.0 %     Test CRC 0AE5D149     Copy CRC 0AE5D149     Track not present in AccurateRip database     Copy OKTrack 27     Filename C:\27 Finally Home (Album Version).wav     Pre-gap length  0:00:05.20     Peak level 98.7 %     Extraction speed 5.8 X     Track quality 100.0 %     Test CRC 4B97BAF7     Copy CRC 4B97BAF7     Track not present in AccurateRip database     Copy OKNone of the tracks are present in the AccurateRip databaseNo errors occurredEnd of status report---- CUETools DB Plugin V2.1.6[CTDB TOCID: 8bCNkRhOgPgEH1nKzpclhGSLRk0-] foundSubmit result: 8bCNkRhOgPgEH1nKzpclhGSLRk0- has been confirmedTrack | CTDB Status  1   | (3/3) Accurately ripped  2   | (3/3) Accurately ripped  3   | (3/3) Accurately ripped  4   | (3/3) Accurately ripped  5   | (3/3) Accurately ripped  6   | (3/3) Accurately ripped  7   | (3/3) Accurately ripped  8   | (3/3) Accurately ripped  9   | (3/3) Accurately ripped 10   | (3/3) Accurately ripped 11   | (3/3) Accurately ripped 12   | (3/3) Accurately ripped 13   | (3/3) Accurately ripped 14   | (3/3) Accurately ripped 15   | (3/3) Accurately ripped 16   | (3/3) Accurately ripped 17   | (3/3) Accurately ripped 18   | (3/3) Accurately ripped 19   | (3/3) Accurately ripped 20   | (3/3) Accurately ripped 21   | (3/3) Accurately ripped 22   | (3/3) Accurately ripped 23   | (3/3) Accurately ripped 24   | (3/3) Accurately ripped 25   | (3/3) Accurately ripped 26   | (3/3) Accurately ripped 27   | (3/3) Accurately ripped

Содержание индексной карты (.CUE)

REM GENRE ScoreREM DATE 2017REM DISCID 91116D1BREM COMMENT "ExactAudioCopy v1.1"PERFORMER "Jerry Goldsmith"TITLE "The Haunting (The DeLuxe Edition)"FILE "01. Afraid.wav" WAVE  TRACK 01 AUDIO    TITLE "Afraid"    PERFORMER "Jerry Goldsmith"    INDEX 01 00:00:00  TRACK 02 AUDIO    TITLE "A Place For Everything"    PERFORMER "Jerry Goldsmith"    INDEX 00 00:42:06FILE "02. A Place For Everything.wav" WAVE    INDEX 01 00:00:00  TRACK 03 AUDIO    TITLE "Hill House"    PERFORMER "Jerry Goldsmith"    INDEX 00 03:15:57FILE "03. Hill House.wav" WAVE    INDEX 01 00:00:00  TRACK 04 AUDIO    TITLE "First Look"    PERFORMER "Jerry Goldsmith"    INDEX 00 00:45:26FILE "04. First Look.wav" WAVE    INDEX 01 00:00:00  TRACK 05 AUDIO    TITLE "In The Dark"    PERFORMER "Jerry Goldsmith"    INDEX 00 01:36:01FILE "05. In The Dark.wav" WAVE    INDEX 01 00:00:00  TRACK 06 AUDIO    TITLE "The Carousel"    PERFORMER "Jerry Goldsmith"    INDEX 00 00:54:71FILE "06. The Carousel.wav" WAVE    INDEX 01 00:00:00  TRACK 07 AUDIO    TITLE "The Yellow Light"    PERFORMER "Jerry Goldsmith"    INDEX 00 01:01:04FILE "07. The Yellow Light.wav" WAVE    INDEX 01 00:00:00  TRACK 08 AUDIO    TITLE "Nell's Story"    PERFORMER "Jerry Goldsmith"    INDEX 00 01:16:40FILE "08. Nell's Story.wav" WAVE    INDEX 01 00:00:00  TRACK 09 AUDIO    TITLE "A Broken String"    PERFORMER "Jerry Goldsmith"    INDEX 00 00:49:43FILE "09. A Broken String.wav" WAVE    INDEX 01 00:00:00  TRACK 10 AUDIO    TITLE "Meetings"    PERFORMER "Jerry Goldsmith"    INDEX 00 01:00:43FILE "10. Meetings.wav" WAVE    INDEX 01 00:00:00  TRACK 11 AUDIO    TITLE "Portraits"    PERFORMER "Jerry Goldsmith"    INDEX 00 02:58:33FILE "11. Portraits.wav" WAVE    INDEX 01 00:00:00  TRACK 12 AUDIO    TITLE "The Curtains"    PERFORMER "Jerry Goldsmith"    INDEX 00 00:42:24FILE "12. The Curtains.wav" WAVE    INDEX 01 00:00:00  TRACK 13 AUDIO    TITLE "Testing"    PERFORMER "Jerry Goldsmith"    INDEX 00 03:03:46FILE "13. Testing.wav" WAVE    INDEX 01 00:00:00  TRACK 14 AUDIO    TITLE "Noisy Fireplace"    PERFORMER "Jerry Goldsmith"    INDEX 00 01:37:72FILE "14. Noisy Fireplace.wav" WAVE    INDEX 01 00:00:00  TRACK 15 AUDIO    TITLE "Welcome Home Eleanor"    PERFORMER "Jerry Goldsmith"    INDEX 00 01:33:37FILE "15. Welcome Home Eleanor.wav" WAVE    INDEX 01 00:00:00  TRACK 16 AUDIO    TITLE "Green House Tale / Bloody Feet"    PERFORMER "Jerry Goldsmith"    INDEX 00 01:50:09FILE "16. Green House Tale - Bloody Feet.wav" WAVE    INDEX 01 00:00:00  TRACK 17 AUDIO    TITLE "Crane's Study"    PERFORMER "Jerry Goldsmith"    INDEX 00 03:49:10FILE "17. Crane's Study.wav" WAVE    INDEX 01 00:00:00  TRACK 18 AUDIO    TITLE "Curly Hair"    PERFORMER "Jerry Goldsmith"    INDEX 00 02:14:73FILE "18. Curly Hair.wav" WAVE    INDEX 01 00:00:00  TRACK 19 AUDIO    TITLE "The Picture Album"    PERFORMER "Jerry Goldsmith"    INDEX 00 03:09:21FILE "19. The Picture Album.wav" WAVE    INDEX 01 00:00:00  TRACK 20 AUDIO    TITLE "What Am I Doing"    PERFORMER "Jerry Goldsmith"    INDEX 00 04:48:14FILE "20. What Am I Doing.wav" WAVE    INDEX 01 00:00:00  TRACK 21 AUDIO    TITLE "Out Of Bed"    PERFORMER "Jerry Goldsmith"    INDEX 00 02:20:52FILE "21. Out Of Bed.wav" WAVE    INDEX 01 00:00:00  TRACK 22 AUDIO    TITLE "Return To The Carousel / What Do You Want"    PERFORMER "Jerry Goldsmith"    INDEX 00 01:00:07FILE "22. Return To The Carousel - What Do You Want.wav" WAVE    INDEX 01 00:00:00  TRACK 23 AUDIO    TITLE "Twisted Stairs"    PERFORMER "Jerry Goldsmith"    INDEX 00 04:08:44FILE "23. Twisted Stairs.wav" WAVE    INDEX 01 00:00:00  TRACK 24 AUDIO    TITLE "Terror In Bed / Nell's Room"    PERFORMER "Jerry Goldsmith"    INDEX 00 01:01:22FILE "24. Terror In Bed - Nell's Room.wav" WAVE    INDEX 01 00:00:00  TRACK 25 AUDIO    TITLE "Finally Home"    PERFORMER "Jerry Goldsmith"    INDEX 00 06:56:35FILE "25. Finally Home.wav" WAVE    INDEX 01 00:00:00  TRACK 26 AUDIO    TITLE "Theme From The Haunting / Home Safe"    PERFORMER "Jerry Goldsmith"    INDEX 00 09:19:17FILE "26. Theme From The Haunting - Home Safe.wav" WAVE    INDEX 01 00:00:00  TRACK 27 AUDIO    TITLE "Finally Home (Album Version)"    PERFORMER "Jerry Goldsmith"    INDEX 00 05:01:49FILE "27. Finally Home (Album Version).wav" WAVE    INDEX 01 00:00:00

Лог проверки качества

AUDIOCHECKER v2.0 beta (build 457) - by Dester - opdester@freemail.hu~~~~~~~~~~~~~~~~~~~~~~~~~~~~~~~~~~-=== DO NOT EDIT THIS FILE! ===-Path: ...\Varese Sarabande - VCL 1117 118101 -=- 01. Afraid.flac -=- CDDA (85%)02 -=- 02. A Place For Everything.flac -=- CDDA (100%)03 -=- 03. Hill House.flac -=- CDDA (100%)04 -=- 04. First Look.flac -=- CDDA (100%)05 -=- 05. In The Dark.flac -=- CDDA (94%)06 -=- 06. The Carousel.flac -=- CDDA (99%)07 -=- 07. The Yellow Light.flac -=- CDDA (100%)08 -=- 08. Nell's Story.flac -=- CDDA (100%)09 -=- 09. A Broken String.flac -=- CDDA (100%)10 -=- 10. Meetings.flac -=- CDDA (99%)11 -=- 11. Portraits.flac -=- CDDA (100%)12 -=- 12. The Curtains.flac -=- CDDA (76%)13 -=- 13. Testing.flac -=- CDDA (43%)14 -=- 14. Noisy Fireplace.flac -=- CDDA (100%)15 -=- 15. Welcome Home Eleanor.flac -=- CDDA (87%)16 -=- 16. Green House Tale - Bloody Feet.flac -=- CDDA (86%)17 -=- 17. Crane's Study.flac -=- CDDA (87%)18 -=- 18. Curly Hair.flac -=- CDDA (100%)19 -=- 19. The Picture Album.flac -=- CDDA (42%)20 -=- 20. What Am I Doing.flac -=- CDDA (76%)21 -=- 21. Out Of Bed.flac -=- CDDA (100%)22 -=- 22. Return To The Carousel - What Do You Want.flac -=- CDDA (100%)23 -=- 23. Twisted Stairs.flac -=- CDDA (54%)24 -=- 24. Terror In Bed - Nell's Room.flac -=- CDDA (100%)25 -=- 25. Finally Home.flac -=- CDDA (94%)26 -=- 26. Theme From The Haunting - Home Safe.flac -=- CDDA (99%)27 -=- 27. Finally Home (Album Version).flac -=- CDDA (100%)Summary 89,67% CDDA241237940
Доп. информация: Ограниченное издание 2000 экземпляров.

Об альбоме (сборнике)

В этом году мы празднуем Хэллоуин с выпуском Deluxe Edition классической музыки Джерри Голдсмита для римейка 1999 года «Призраки». Мы получили так много писем об этом и очень рады, что наконец-то вернули его, отредактированный и звучащий лучше, чем когда-либо, теперь вдвое дольше! Какая тема! Какой результат!Счастливого Хэллоуина!Этот ужасный рассказ рассказывает о посетителях уединенного особняка Хилл Хаус, которых вызвал в это изолированное место доктор Дэвид Мэрроу (Лиам Нисон) в рамках исследования бессонницы. Тем не менее, Марроу действительно исследует страхи и планирует напугать субъектов, включая интровертную Нелл (Лили Тейлор) и соблазнительную Тео (Кэтрин Зета-Джонс). К несчастью для Марроу и всех, кто живет в Хилл-Хаусе, поместье на самом деле преследует злой дух, который мучит своих гостей. Режиссером «Призрака» был Ян де Бонт («Скорость», «Твистер»).

To download the content you need:
1. Download and install torrent client [for Windows] or for mobile system
2. Click on [Download]
Attention.
If the test YOU are NOT a ROBOT - does not work, then You are using an outdated browser.
Install the current browser and click on [Download]

Do not work with Yandex browser. Uploading files to them is erroneous.
Security: torrent client is allowed by Kaspersky.

[sexgirl.su].t720951.torrent 
Torrent: Registered [ 2021-02-05 18:30 ] · F2DE3D435C950ABAAA161C86A3DA4F7DF27C1BBF

Download .torrent

Download

18 KB

Status: checked
Completed: 0 times
Size: 402 MB
terms.php
[Profile] [PM]
Display posts:    
Reply to topic

Current time is: 05-Mar 01:37

All times are UTC ± 0



You cannot post new topics in this forum
You cannot reply to topics in this forum
You cannot edit your posts in this forum
You cannot delete your posts in this forum
You cannot vote in polls in this forum
You cannot attach files in this forum
You can download files in this forum