(Electronic, Disco, Synth-Pop) [CD] VA - Videosyncratic (A Taste Of Synth Pop) - 2018, FLAC (image+.cue), lossless

Reply to topic
DL-List and Torrent activity
Size:  522 MB   |    Registered:  1 month 21 day   |    Completed:  0 times

Seeder not seen: Never

 
   
 
 
Author Message

star21 ®

Gender: Female

Longevity: 5 years 4 months

Posts: 262231

Location: Екатеринбург

Post 17-Jan-2021 19:13

[Quote]

Videosyncratic (A Taste Of Synth Pop) Жанр: Electronic, Disco, Synth-Pop
Носитель: CD
Страна-производитель диска (релиза): UK
Год издания: 2018
Издатель (лейбл): Own Label , UMC
Номер по каталогу: 0600753855010
Аудиокодек: FLAC (*.flac)
Тип рипа: image+.cue
Битрейт аудио: lossless
Продолжительность: 01:17:22
Источник (релизер): London
Наличие сканов в содержимом раздачи: даТреклист:
01. The Human League - (Keep Feeling) Fascination
02. Orchestral Manoeuvres In The Dark - Messages
03. Spandau Ballet - The Freeze
04. Telex - Moskow Diskow
05 . The Buggles - The Plastic Age
06. Visage - Fade To Grey
07. Duran Duran - The Chauffeur
08. Japan - Ghosts
09. Bill Nelson - Eros Arriving
10. Phil Lynott - Yellow Pearl
11. Soft Cell - Torch
12. Tears For Fears - Pale Shelter
13. Heaven 17 - (We Don't Need This) Fascist Groove Thang
14. Our Daughter's Wedding - Lawnchairs
15 . New Order - Temptation
16. B. Movie - Nowhere Girl
17. Dollar - Videotheque
18. Talk Talk - Today
19. China Crisis - Christian

Лог создания рипа

Exact Audio Copy V1.0 beta 6 from 9. April 2015EAC extraction logfile from 10. December 2018, 19:45Various Artists / Videosyncratic (A Taste Of Synth Pop)Used drive  : ATAPI   iHAS122   C   Adapter: 1  ID: 0Read mode               : SecureUtilize accurate stream : YesDefeat audio cache      : YesMake use of C2 pointers : NoRead offset correction                      : 6Overread into Lead-In and Lead-Out          : NoFill up missing offset samples with silence : YesDelete leading and trailing silent blocks   : NoNull samples used in CRC calculations       : YesUsed interface                              : Native Win32 interface for Win NT & 2000Used output format : Internal WAV RoutinesSample format      : 44.100 Hz; 16 Bit; StereoTOC of the extracted CD     Track |   Start  |  Length  | Start sector | End sector    ---------------------------------------------------------        1  |  0:00.00 |  3:46.08 |         0    |    16957        2  |  3:46.08 |  4:07.24 |     16958    |    35506        3  |  7:53.32 |  3:32.42 |     35507    |    51448        4  | 11:25.74 |  4:14.08 |     51449    |    70506        5  | 15:40.07 |  5:13.52 |     70507    |    94033        6  | 20:53.59 |  3:49.01 |     94034    |   111209        7  | 24:42.60 |  5:20.03 |    111210    |   135212        8  | 30:02.63 |  3:58.12 |    135213    |   153074        9  | 34:01.00 |  3:37.65 |    153075    |   169414       10  | 37:38.65 |  2:57.74 |    169415    |   182763       11  | 40:36.64 |  4:09.58 |    182764    |   201496       12  | 44:46.47 |  4:04.13 |    201497    |   219809       13  | 48:50.60 |  4:21.07 |    219810    |   239391       14  | 53:11.67 |  3:27.45 |    239392    |   254961       15  | 56:39.37 |  5:25.28 |    254962    |   279364       16  | 62:04.65 |  3:43.50 |    279365    |   296139       17  | 65:48.40 |  3:34.50 |    296140    |   312239       18  | 69:23.15 |  3:30.15 |    312240    |   328004       19  | 72:53.30 |  4:29.42 |    328005    |   348221Range status and errorsSelected range     Filename C:\Users\London\Desktop\Various Artists - Videosyncratic (A Taste Of Synth Pop).wav     Peak level 99.8 %     Extraction speed 3.8 X     Range quality 100.0 %     Test CRC 7BCC08A9     Copy CRC 7BCC08A9     Copy OKNo errors occurredAccurateRip summaryTrack  1  not present in databaseTrack  2  not present in databaseTrack  3  not present in databaseTrack  4  not present in databaseTrack  5  not present in databaseTrack  6  not present in databaseTrack  7  not present in databaseTrack  8  not present in databaseTrack  9  not present in databaseTrack 10  not present in databaseTrack 11  not present in databaseTrack 12  not present in databaseTrack 13  not present in databaseTrack 14  not present in databaseTrack 15  not present in databaseTrack 16  not present in databaseTrack 17  not present in databaseTrack 18  not present in databaseTrack 19  not present in databaseNone of the tracks are present in the AccurateRip databaseEnd of status report---- CUETools DB Plugin V2.1.6[CTDB TOCID: zNewcrpcuOiVemXJjeaF76VfKf8-] disk not present in databaseSubmit result: zNewcrpcuOiVemXJjeaF76VfKf8- has been uploaded==== Log checksum A2838AD73AD4DD12E788EF05FD7BDACECBA2E38E8F52E80C43A3907F944F41F7 ====

Содержание индексной карты (.CUE)

REM GENRE SynthpopREM DATE 2018REM DISCID 18122213REM COMMENT "ExactAudioCopy v1.0b6"PERFORMER "Various Artists"TITLE "Videosyncratic (A Taste Of Synth Pop)"FILE "Various Artists - Videosyncratic (A Taste Of Synth Pop).flac" WAVE  TRACK 01 AUDIO    TITLE "(Keep Feeling) Fascination"    PERFORMER "The Human League"    INDEX 01 00:00:00  TRACK 02 AUDIO    TITLE "Messages"    PERFORMER "Orchestral Manoeuvres In The Dark"    INDEX 00 03:44:26    INDEX 01 03:46:08  TRACK 03 AUDIO    TITLE "The Freeze"    PERFORMER "Spandau Ballet"    INDEX 00 07:51:50    INDEX 01 07:53:32  TRACK 04 AUDIO    TITLE "Moskow Diskow"    PERFORMER "Telex"    INDEX 00 11:24:17    INDEX 01 11:25:74  TRACK 05 AUDIO    TITLE "The Plastic Age"    PERFORMER "The Buggles"    INDEX 00 15:38:25    INDEX 01 15:40:07  TRACK 06 AUDIO    TITLE "Fade To Grey"    PERFORMER "Visage"    INDEX 00 20:52:02    INDEX 01 20:53:59  TRACK 07 AUDIO    TITLE "The Chauffeur"    PERFORMER "Duran Duran"    INDEX 00 24:41:03    INDEX 01 24:42:60  TRACK 08 AUDIO    TITLE "Ghosts"    PERFORMER "Japan"    INDEX 00 30:01:06    INDEX 01 30:02:63  TRACK 09 AUDIO    TITLE "Eros Arriving"    PERFORMER "Bill Nelson"    INDEX 00 33:59:18    INDEX 01 34:01:00  TRACK 10 AUDIO    TITLE "Yellow Pearl"    PERFORMER "Phil Lynott"    INDEX 00 37:38:62    INDEX 01 37:38:65  TRACK 11 AUDIO    TITLE "Torch"    PERFORMER "Soft Cell"    INDEX 00 40:35:07    INDEX 01 40:36:64  TRACK 12 AUDIO    TITLE "Pale Shelter"    PERFORMER "Tears For Fears"    INDEX 00 44:44:64    INDEX 01 44:46:47  TRACK 13 AUDIO    TITLE "(We Don't Need This) Fascist Groove Thang"    PERFORMER "Heaven 17"    INDEX 00 48:49:03    INDEX 01 48:50:60  TRACK 14 AUDIO    TITLE "Lawnchairs"    PERFORMER "Our Daughter's Wedding"    INDEX 00 53:10:10    INDEX 01 53:11:67  TRACK 15 AUDIO    TITLE "Temptation"    PERFORMER "New Order"    INDEX 00 56:37:55    INDEX 01 56:39:37  TRACK 16 AUDIO    TITLE "Nowhere Girl"    PERFORMER "B. Movie"    INDEX 00 62:03:08    INDEX 01 62:04:65  TRACK 17 AUDIO    TITLE "Videotheque"    PERFORMER "Dollar"    INDEX 00 65:46:58    INDEX 01 65:48:40  TRACK 18 AUDIO    TITLE "Today"    PERFORMER "Talk Talk"    INDEX 00 69:21:33    INDEX 01 69:23:15  TRACK 19 AUDIO    TITLE "Christian"    PERFORMER "China Crisis"    INDEX 00 72:51:48    INDEX 01 72:53:30

DR Log

foobar2000 1.3.13 / Замер динамического диапазона (DR) 1.1.1Дата отчёта:  2018-12-10 19:50:05--------------------------------------------------------------------------------Анализ:   Bill Nelson / Videosyncratic (A Taste Of Synth Pop) (1)          China Crisis / Videosyncratic (A Taste Of Synth Pop) (2)--------------------------------------------------------------------------------DR         Пики         RMS           Продолжительность трека--------------------------------------------------------------------------------DR11      -1.50 дБ   -14.59 дБ      3:38 09-Eros ArrivingDR14      -0.01 дБ   -17.18 дБ      4:30 19-Christian--------------------------------------------------------------------------------Количество треков: 2Реальные значения DR: DR13Частота:   44100 ГцКаналов:   2Разрядность:   16Битрейт:   874 кбит/сКодек:   FLAC================================================================================--------------------------------------------------------------------------------Статистика для:  17-VideothequeКоличество сэмплов: 9466800Продолжительность: 3:35--------------------------------------------------------------------------------           Левый             ПравыйПики:               -4.00 дБ     ---     -4.00 дБСредний RMS:             -13.41 дБ     ---    -13.18 дБDR канала:               8.08 дБ     ---      7.81 дБ--------------------------------------------------------------------------------Реальные значения DR: DR8Частота:   44100 ГцКаналов:   2Разрядность:   16Битрейт:   874 кбит/сКодек:   FLAC================================================================================--------------------------------------------------------------------------------Анализ:   Duran Duran / Videosyncratic (A Taste Of Synth Pop) (1)          Heaven 17 / Videosyncratic (A Taste Of Synth Pop) (2)--------------------------------------------------------------------------------DR         Пики         RMS           Продолжительность трека--------------------------------------------------------------------------------DR11      -4.10 дБ   -17.73 дБ      5:20 07-The ChauffeurDR9       -2.53 дБ   -13.41 дБ      4:21 13-(We Don't Need This) Fascist Groove Thang--------------------------------------------------------------------------------Количество треков: 2Реальные значения DR: DR10Частота:   44100 ГцКаналов:   2Разрядность:   16Битрейт:   874 кбит/сКодек:   FLAC================================================================================--------------------------------------------------------------------------------Анализ:   Japan / Videosyncratic (A Taste Of Synth Pop) (1)          New Order / Videosyncratic (A Taste Of Synth Pop) (2)--------------------------------------------------------------------------------DR         Пики         RMS           Продолжительность трека--------------------------------------------------------------------------------DR11      -4.00 дБ   -17.29 дБ      3:58 08-GhostsDR8       -2.00 дБ   -12.76 дБ      5:25 15-Temptation--------------------------------------------------------------------------------Количество треков: 2Реальные значения DR: DR10Частота:   44100 ГцКаналов:   2Разрядность:   16Битрейт:   874 кбит/сКодек:   FLAC================================================================================--------------------------------------------------------------------------------Анализ:   Orchestral Manoeuvres In The Dark / Videosyncratic (A Taste Of Synth Pop) (1)          Our Daughter's Wedding / Videosyncratic (A Taste Of Synth Pop) (2)--------------------------------------------------------------------------------DR         Пики         RMS           Продолжительность трека--------------------------------------------------------------------------------DR11      -1.00 дБ   -13.85 дБ      4:07 02-MessagesDR14      -0.01 дБ   -15.60 дБ      3:28 14-Lawnchairs--------------------------------------------------------------------------------Количество треков: 2Реальные значения DR: DR13Частота:   44100 ГцКаналов:   2Разрядность:   16Битрейт:   874 кбит/сКодек:   FLAC================================================================================--------------------------------------------------------------------------------Анализ:   Phil Lynott / Videosyncratic (A Taste Of Synth Pop) (1)          Soft Cell / Videosyncratic (A Taste Of Synth Pop) (2)--------------------------------------------------------------------------------DR         Пики         RMS           Продолжительность трека--------------------------------------------------------------------------------DR12      -0.01 дБ   -14.00 дБ      2:58 10-Yellow PearlDR10      -2.75 дБ   -14.73 дБ      4:10 11-Torch--------------------------------------------------------------------------------Количество треков: 2Реальные значения DR: DR11Частота:   44100 ГцКаналов:   2Разрядность:   16Битрейт:   874 кбит/сКодек:   FLAC================================================================================--------------------------------------------------------------------------------Анализ:   Spandau Ballet / Videosyncratic (A Taste Of Synth Pop) (1)          Talk Talk / Videosyncratic (A Taste Of Synth Pop) (2)--------------------------------------------------------------------------------DR         Пики         RMS           Продолжительность трека--------------------------------------------------------------------------------DR10      -2.00 дБ   -13.42 дБ      3:33 03-The FreezeDR7       -3.50 дБ   -13.36 дБ      3:30 18-Today--------------------------------------------------------------------------------Количество треков: 2Реальные значения DR: DR9Частота:   44100 ГцКаналов:   2Разрядность:   16Битрейт:   874 кбит/сКодек:   FLAC================================================================================--------------------------------------------------------------------------------Статистика для:  12-Pale ShelterКоличество сэмплов: 10768044Продолжительность: 4:04--------------------------------------------------------------------------------           Левый             ПравыйПики:               -1.05 дБ     ---     -1.00 дБСредний RMS:             -13.26 дБ     ---    -12.17 дБDR канала:              10.15 дБ     ---      9.29 дБ--------------------------------------------------------------------------------Реальные значения DR: DR10Частота:   44100 ГцКаналов:   2Разрядность:   16Битрейт:   874 кбит/сКодек:   FLAC================================================================================--------------------------------------------------------------------------------Анализ:   Telex / Videosyncratic (A Taste Of Synth Pop) (1)          The Buggles / Videosyncratic (A Taste Of Synth Pop) (2)--------------------------------------------------------------------------------DR         Пики         RMS           Продолжительность трека--------------------------------------------------------------------------------DR14      -0.01 дБ   -16.15 дБ      4:14 04-Moskow DiskowDR11      -0.82 дБ   -15.03 дБ      5:14 05-The Plastic Age--------------------------------------------------------------------------------Количество треков: 2Реальные значения DR: DR13Частота:   44100 ГцКаналов:   2Разрядность:   16Битрейт:   874 кбит/сКодек:   FLAC================================================================================--------------------------------------------------------------------------------Анализ:   The Human League / Videosyncratic (A Taste Of Synth Pop) (1)          Visage / Videosyncratic (A Taste Of Synth Pop) (2)--------------------------------------------------------------------------------DR         Пики         RMS           Продолжительность трека--------------------------------------------------------------------------------DR9       -3.00 дБ   -13.59 дБ      3:46 01-(Keep Feeling) FascinationDR9       -5.00 дБ   -15.44 дБ      3:49 06-Fade To Grey--------------------------------------------------------------------------------Количество треков: 2Реальные значения DR: DR9Частота:   44100 ГцКаналов:   2Разрядность:   16Битрейт:   874 кбит/сКодек:   FLAC================================================================================foobar2000 1.3.13 / Замер динамического диапазона (DR) 1.1.1Дата отчёта:  2018-12-10 19:50:03--------------------------------------------------------------------------------Статистика для:  16-Nowhere GirlКоличество сэмплов: 9863700Продолжительность: 3:44--------------------------------------------------------------------------------           Левый             ПравыйПики:               -4.00 дБ     ---     -4.00 дБСредний RMS:             -14.67 дБ     ---    -13.20 дБDR канала:               9.47 дБ     ---      8.18 дБ--------------------------------------------------------------------------------Реальные значения DR: DR9Частота:   44100 ГцКаналов:   2Разрядность:   16Битрейт:   874 кбит/сКодек:   FLAC================================================================================
Раздаю до первых 5-ти скачавших, на раздачи не возвращаюсь...

To download the content you need:
1. Download and install torrent client [for Windows] or for mobile system
2. Click on [Download]
Attention.
If the test YOU are NOT a ROBOT - does not work, then You are using an outdated browser.
Install the current browser and click on [Download]

Do not work with Yandex browser. Uploading files to them is erroneous.
Security: torrent client is allowed by Kaspersky.

[sexgirl.su].t717880.torrent 
Torrent: Registered [ 2021-01-17 19:12 ] · AE79D9EA2FFE0295033051B2FBCDF5A9B5D1DA5A

Download .torrent

Download

11 KB

Status: checked
Completed: 0 times
Size: 522 MB
terms.php
[Profile] [PM]
Display posts:    
Reply to topic

Current time is: 08-Mar 03:23

All times are UTC ± 0



You cannot post new topics in this forum
You cannot reply to topics in this forum
You cannot edit your posts in this forum
You cannot delete your posts in this forum
You cannot vote in polls in this forum
You cannot attach files in this forum
You can download files in this forum