[TR24][OF] Boarcorpse - Uncured - 2018 (Death Metal)

Reply to topic
DL-List and Torrent activity
Size:  519 MB   |    Registered:  12 days   |    Completed:  0 times

Seeder not seen: Never

 
   
 
 
Author Message

star21 ®

Gender: Female

Longevity: 5 years 2 months

Posts: 262232

Location: Екатеринбург

Post 11-Jan-2021 16:07

[Quote]


Boarcorpse

Uncured


• Формат записи | Источник записи: [TR24][OF]
• Наличие водяных знаков: Нет
• Страна: USA
• Год издания релиза: 2018
• Жанр: Death Metal
• Продолжительность: 00:40:44
• Источник, релизер: RounDeviL
• WEB релиз: bandcamp
• Контейнер: FLAC (*.flac)
• Тип рипа: tracks
• Разрядность: 24/44,1
• Формат: WAV (flac.ape.wv)
• Количество каналов: 2.0
• Наличие сканов: front 01 - Odious Transmutation (00:04:23)
02 - Vile Serum (00:04:18)
03 - Boar Of The Worlds (00:05:14)
04 - Abducted (00:04:23)
05 - Hypochondriasis (00:05:03)
06 - Putrid Lair (00:04:00)
07 - Planet Swine (00:04:30)
08 - Honkey Mind Control (00:04:19)
09 - Uncured (00:04:29)

• Замер динамического диапазона •

foobar2000 1.3.17 / Замер динамического диапазона (DR) 1.1.1Дата отчёта:  2018-12-14 18:57:03--------------------------------------------------------------------------------Анализ:   Boarcorpse / Uncured--------------------------------------------------------------------------------DR         Пики         RMS           Продолжительность трека--------------------------------------------------------------------------------DR7        0.00 дБ    -7.43 дБ      4:24 01-Odious TransmutationDR7        0.00 дБ    -7.44 дБ      4:19 02-Vile SerumDR7        0.00 дБ    -7.32 дБ      5:15 03-Boar of the WorldsDR7        0.00 дБ    -7.31 дБ      4:24 04-AbductedDR7        0.00 дБ    -7.62 дБ      5:03 05-HypochondriasisDR7        0.00 дБ    -7.51 дБ      4:00 06-Putrid LairDR7        0.00 дБ    -7.42 дБ      4:31 07-Planet SwineDR7        0.00 дБ    -7.40 дБ      4:19 08-Honkey Mind ControlDR7        0.00 дБ    -7.45 дБ      4:29 09-Uncured--------------------------------------------------------------------------------Количество треков: 9Реальные значения DR: DR7Частота:   44100 ГцКаналов:   2Разрядность:   24Битрейт:   1738 кбит/сКодек:   FLAC================================================================================

To download the content you need:
1. Download and install torrent client [for Windows] or for mobile system
2. Click on [Download]
Attention.
If the test YOU are NOT a ROBOT - does not work, then You are using an outdated browser.
Install the current browser and click on [Download]

Do not work with Yandex browser. Uploading files to them is erroneous.
Security: torrent client is allowed by Kaspersky.

[sexgirl.su].t717172.torrent 
Torrent: Registered [ 2021-01-11 16:07 ] · 4777934B46B364B66C002F6638432C8298C87669

Download .torrent

Download

11 KB

Status: checked
Completed: 0 times
Size: 519 MB
terms.php
[Profile] [PM]
Display posts:    
Reply to topic

Current time is: 24-Jan 00:14

All times are UTC ± 0



You cannot post new topics in this forum
You cannot reply to topics in this forum
You cannot edit your posts in this forum
You cannot delete your posts in this forum
You cannot vote in polls in this forum
You cannot attach files in this forum
You can download files in this forum