(Doom Metal) [MC] [16/44.1] Great Sorrow - Dreams... Solitude, Silence - 1995, FLAC (image+.cue)

Reply to topic
DL-List and Torrent activity
Size:  299 MB   |    Registered:  3 months 2 days   |    Completed:  0 times
DL-List: None

Seeder not seen: Never

 
   
 
 
Author Message

star21 ®

Gender: Female

Longevity: 5 years 5 months

Posts: 262231

Location: Екатеринбург

Post 10-Jan-2021 12:23

[Quote]

Great Sorrow - Dreams... Solitude, Silence Жанр: Doom Metal
Носитель: MC
Год выпуска: 1995
Лейбл: Soyuz/MetalAgen Records
Номер по каталогу: SZ0489-95
Страна-производитель: Россия
Аудио кодек: FLAC
Тип рипа: image+.cue
Формат записи: 16/44.1
Формат раздачи: 16/44.1
Продолжительность: 39:17:00
Треклист:
1. The Moan in Time
2. The Preludy of Tears
3. All My Belief
4. The Wanderer
5. If You Run Away from...
6. The Endless Tragedy
7. Dreams... Solitude, SilenceИсточник оцифровки: автором раздачи
Класс состояния MC: Mint
Устройство воспроизведения: Nakamichi 680ZX
АЦП: Creative E-MU 0404 USB
Программа-оцифровщик: Adobe Audition 2015
Обработка: Нет

Спектр

АЧХ

Уровень записи

Доп. информация

Настройка головки под каждую сторону, чистка головки спиртом перед оцифровкой каждой стороны.
Сканы сделал Redcaesa.

Замер динамического диапазона

foobar2000 1.3.14 / Dynamic Range Meter 1.1.1log date: 2018-12-16 20:46:00--------------------------------------------------------------------------------Analyzed: ? / ?--------------------------------------------------------------------------------DR         Peak         RMS     Duration Track--------------------------------------------------------------------------------DR9       -3.14 dB   -14.44 dB      6:23 01-Great Sorrow - The Moan in TimeDR9       -3.39 dB   -13.79 dB      5:30 02-Great Sorrow - The Preludy of TearsDR9       -2.94 dB   -14.22 dB      5:32 03-Great Sorrow - All My BeliefDR10      -3.66 dB   -16.20 dB      4:05 04-Great Sorrow - The WandererDR11       0.00 dB   -15.28 dB      6:44 05-Great Sorrow - If You Run Away from...DR10      -3.30 dB   -14.80 dB      4:02 06-Great Sorrow - The Endless TragedyDR10      -2.50 dB   -15.79 dB      7:00 07-Great Sorrow - Dreams... Solitude, Silence--------------------------------------------------------------------------------Number of tracks:  7Official DR value: DR10Samplerate:        44100 HzChannels:          2Bits per sample:   16Bitrate:           965 kbpsCodec:             FLAC================================================================================

To download the content you need:
1. Download and install torrent client [for Windows] or for mobile system
2. Click on [Download]
Attention.
If the test YOU are NOT a ROBOT - does not work, then You are using an outdated browser.
Install the current browser and click on [Download]

Do not work with Yandex browser. Uploading files to them is erroneous.
Security: torrent client is allowed by Kaspersky.

[sexgirl.su].t717165.torrent 
Torrent: Registered [ 2021-01-10 12:21 ] · 2ADFD8F9C1F2F0816848A427E3B4FE2818F4F9E2

Download .torrent

Download

12 KB

Status: checked
Completed: 0 times
Size: 299 MB
terms.php
[Profile] [PM]
Display posts:    
Reply to topic

Current time is: 12-Apr 19:53

All times are UTC ± 0



You cannot post new topics in this forum
You cannot reply to topics in this forum
You cannot edit your posts in this forum
You cannot delete your posts in this forum
You cannot vote in polls in this forum
You cannot attach files in this forum
You can download files in this forum