(Trance) [CDR] Filo & Peri - Dance With A Devil - 2006, FLAC (tracks+.cue), lossless

Reply to topic
DL-List and Torrent activity
Size:  412 MB   |    Registered:  1 month 24 days   |    Completed:  0 times

Seeder not seen: Never

 
   
 
 
Author Message

star21 ®

Gender: Female

Longevity: 5 years 3 months

Posts: 262231

Location: Екатеринбург

Post 10-Jan-2021 08:01

[Quote]

Filo & Peri - Dance With A Devil Жанр: Trance
Носитель: CDR
Страна-производитель диска (релиза): Germany
Год издания: 2006
Издатель (лейбл): In-Telligance
Номер по каталогу: In-Telligance 005
Аудиокодек: FLAC (*.flac)
Тип рипа: tracks+.cue
Битрейт аудио: lossless
Продолжительность: 00:51:09
Источник: собственный рип
Наличие сканов в содержимом раздачи: да (кроме CD)Треклист:
01. Dance With A Devil (Original Radio Version) (3:14)
02. Dance With A Devil (DJ Shog Remix Edit) (3:42)
03. Dance With A Devil (Flipside Radio Edit) (3:37)
04. Dance With A Devil (Electro Radio Version) (3:42)
05. Dance With A Devil (Original Club Mix) (6:36)
06. Dance With A Devil (DJ Shog RMX) (8:00)
07. Dance With A Devil (Flipside RMX) (8:09)
08. Dance With A Devil (Electro Rerub Mix) (6:26)
09. Dance With A Devil (Serge Devant RMX) (7:44)

Лог создания рипа

Exact Audio Copy V0.99 prebeta 5 from 4. May 2009EAC extraction logfile from 8. December 2011, 12:00Filo & Peri / Dance With A DevilUsed drive  : ASUS    DRW-1814BLT   Adapter: 1  ID: 0Read mode               : SecureUtilize accurate stream : YesDefeat audio cache      : YesMake use of C2 pointers : NoRead offset correction                      : 6Overread into Lead-In and Lead-Out          : NoFill up missing offset samples with silence : YesDelete leading and trailing silent blocks   : NoNull samples used in CRC calculations       : YesUsed interface                              : Native Win32 interface for Win NT & 2000Gap handling                                : Appended to previous trackUsed output format              : User Defined EncoderSelected bitrate                : 1024 kBit/sQuality                         : HighAdd ID3 tag                     : NoCommand line compressor         : C:\Program Files\EAC\Flac\flac.exeAdditional command line options : -8 -V -T "ARTIST=%a" -T "TITLE=%t" -T "ALBUM=%g" -T "DATE=%y" -T "TRACKNUMBER=%n" -T "GENRE=%m" -T "COMMENT=EAC FLAC -8" %sTOC of the extracted CD     Track |   Start  |  Length  | Start sector | End sector    ---------------------------------------------------------        1  |  0:00.00 |  3:13.40 |         0    |    14514        2  |  3:13.40 |  3:42.30 |     14515    |    31194        3  |  6:55.70 |  3:37.21 |     31195    |    47490        4  | 10:33.16 |  3:41.70 |     47491    |    64135        5  | 14:15.11 |  6:35.65 |     64136    |    93825        6  | 20:51.01 |  8:00.19 |     93826    |   129844        7  | 28:51.20 |  8:08.42 |    129845    |   166486        8  | 36:59.62 |  6:25.47 |    166487    |   195408        9  | 43:25.34 |  7:43.64 |    195409    |   230197Track  1     Filename C:\01. Filo & Peri - Dance With A Devil (Original Radio Version).wav     Pre-gap length  0:00:02.00     Peak level 97.9 %     Track quality 100.0 %     Test CRC 0B7872AE     Copy CRC 0B7872AE     Track not present in AccurateRip database     Copy OKTrack  2     Filename C:\02. Filo & Peri - Dance With A Devil (DJ Shog Remix Edit).wav     Peak level 100.0 %     Track quality 100.0 %     Test CRC 0F2AC1F7     Copy CRC 0F2AC1F7     Track not present in AccurateRip database     Copy OKTrack  3     Filename C:\03. Filo & Peri - Dance With A Devil (Flipside Radio Edit).wav     Peak level 97.9 %     Track quality 100.0 %     Test CRC 7A809D1C     Copy CRC 7A809D1C     Track not present in AccurateRip database     Copy OKTrack  4     Filename C:\04. Filo & Peri - Dance With A Devil (Electro Radio Version).wav     Peak level 97.7 %     Track quality 100.0 %     Test CRC B28DA3A1     Copy CRC B28DA3A1     Track not present in AccurateRip database     Copy OKTrack  5     Filename C:\05. Filo & Peri - Dance With A Devil (Original Club Mix).wav     Peak level 97.9 %     Track quality 100.0 %     Test CRC 84C4B0A2     Copy CRC 84C4B0A2     Track not present in AccurateRip database     Copy OKTrack  6     Filename C:\06. Filo & Peri - Dance With A Devil (DJ Shog RMX).wav     Peak level 100.0 %     Track quality 100.0 %     Test CRC 328E8306     Copy CRC 328E8306     Track not present in AccurateRip database     Copy OKTrack  7     Filename C:\07. Filo & Peri - Dance With A Devil (Flipside RMX).wav     Peak level 98.1 %     Track quality 100.0 %     Test CRC B2AB6946     Copy CRC B2AB6946     Track not present in AccurateRip database     Copy OKTrack  8     Filename C:\08. Filo & Peri - Dance With A Devil (Electro Rerub Mix).wav     Peak level 97.7 %     Track quality 100.0 %     Test CRC 2D042639     Copy CRC 2D042639     Track not present in AccurateRip database     Copy OKTrack  9     Filename C:\09. Filo & Peri - Dance With A Devil (Serge Devant RMX).wav     Peak level 91.2 %     Track quality 100.0 %     Test CRC 9A7B1DEC     Copy CRC 9A7B1DEC     Track not present in AccurateRip database     Copy OKNone of the tracks are present in the AccurateRip databaseNo errors occurredEnd of status report

Содержание индексной карты (.CUE)

REM GENRE TranceREM DATE 2006REM DISCID 6E0BFD09REM COMMENT "ExactAudioCopy v0.99pb5"PERFORMER "Filo & Peri"TITLE "Dance With A Devil"FILE "01. Filo & Peri - Dance With A Devil (Original Radio Version).wav" WAVE  TRACK 01 AUDIO    TITLE "Dance With A Devil (Original Radio Version)"    PERFORMER "Filo & Peri"    INDEX 01 00:00:00FILE "02. Filo & Peri - Dance With A Devil (DJ Shog Remix Edit).wav" WAVE  TRACK 02 AUDIO    TITLE "Dance With A Devil (DJ Shog Remix Edit)"    PERFORMER "Filo & Peri"    INDEX 01 00:00:00FILE "03. Filo & Peri - Dance With A Devil (Flipside Radio Edit).wav" WAVE  TRACK 03 AUDIO    TITLE "Dance With A Devil (Flipside Radio Edit)"    PERFORMER "Filo & Peri"    INDEX 01 00:00:00FILE "04. Filo & Peri - Dance With A Devil (Electro Radio Version).wav" WAVE  TRACK 04 AUDIO    TITLE "Dance With A Devil (Electro Radio Version)"    PERFORMER "Filo & Peri"    INDEX 01 00:00:00FILE "05. Filo & Peri - Dance With A Devil (Original Club Mix).wav" WAVE  TRACK 05 AUDIO    TITLE "Dance With A Devil (Original Club Mix)"    PERFORMER "Filo & Peri"    INDEX 01 00:00:00FILE "06. Filo & Peri - Dance With A Devil (DJ Shog RMX).wav" WAVE  TRACK 06 AUDIO    TITLE "Dance With A Devil (DJ Shog RMX)"    PERFORMER "Filo & Peri"    INDEX 01 00:00:00FILE "07. Filo & Peri - Dance With A Devil (Flipside RMX).wav" WAVE  TRACK 07 AUDIO    TITLE "Dance With A Devil (Flipside RMX)"    PERFORMER "Filo & Peri"    INDEX 01 00:00:00FILE "08. Filo & Peri - Dance With A Devil (Electro Rerub Mix).wav" WAVE  TRACK 08 AUDIO    TITLE "Dance With A Devil (Electro Rerub Mix)"    PERFORMER "Filo & Peri"    INDEX 01 00:00:00FILE "09. Filo & Peri - Dance With A Devil (Serge Devant RMX).wav" WAVE  TRACK 09 AUDIO    TITLE "Dance With A Devil (Serge Devant RMX)"    PERFORMER "Filo & Peri"    INDEX 01 00:00:00

To download the content you need:
1. Download and install torrent client [for Windows] or for mobile system
2. Click on [Download]
Attention.
If the test YOU are NOT a ROBOT - does not work, then You are using an outdated browser.
Install the current browser and click on [Download]

Do not work with Yandex browser. Uploading files to them is erroneous.
Security: torrent client is allowed by Kaspersky.

[sexgirl.su].t717048.torrent 
Torrent: Registered [ 2021-01-10 08:00 ] · B3FDAB4964E52F226418517D55146774F69C67F2

Download .torrent

Download

18 KB

Status: checked
Completed: 0 times
Size: 412 MB
terms.php
[Profile] [PM]
Display posts:    
Reply to topic

Current time is: 03-Mar 11:02

All times are UTC ± 0



You cannot post new topics in this forum
You cannot reply to topics in this forum
You cannot edit your posts in this forum
You cannot delete your posts in this forum
You cannot vote in polls in this forum
You cannot attach files in this forum
You can download files in this forum