The Brian Setzer Orchestra - Christmas Rocks [2018, Rock\'n\'Roll / Rockabilly / Jazz Rock / Pop Rock, UHDTV, 2160p]

Reply to topic
DL-List and Torrent activity
Size:  52.75 GB   |    Registered:  6 days   |    Completed:  0 times

Seeder not seen: Never

 
   
 
 
Author Message

star21 ®

Gender: Female

Longevity: 5 years 2 months

Posts: 262232

Location: Екатеринбург

Post 10-Jan-2021 08:01

[Quote]

The Brian Setzer Orchestra - Christmas Rocks Жанр: Rock'n'Roll / Rockabilly / Jazz Rock / Pop Rock
Продолжительность: 01:35:05
Год выпуска: 2018Описание: Here is last years Xmas performance by the Brian Setzer Orchestra, a 2160p capture from the backhaul satellite feed
Live at The Granada Theatre, Santa Barbara, CA, 18 December 2017Треклист:
Pennsylvania 6-5000
Rockin' Around the Christmas Tree
Hoodoo Voodoo Doll
Stray Cat Strut
Boogie Woogie Santa Claus
Gene and Eddie
Angels We Have Heard on High
The Dirty Boogie
Jump, Jive an' Wail
Here Comes Santa Claus
Wichita Lineman
Runnin' Down a Dream
The Christmas Song
Rockabilly Boogie
I Got a Rocket in My Pocket
Fishnet Stockings
Rock This Town
The Nutcracker Suite
Jingle BellsКачество: UHDTV
Разрешение видео/развертка: 2160p
Контейнер: TS
Видео кодек: HEVC
Аудио кодек: AC3
Видео: HEVC, 3840x2160, 59.940 fps, 75.0 Mbps
Аудио#1: E-AC-3, 48.0 KHz, 2 ch, 384 Kbps
Аудио#2: E-AC-3, 48.0 KHz, 2 ch, 96.0 Kbps

MediaInfo

GeneralID                                       : 0 (0x0)Complete name                            : N:\The Brian Setzer Orchestra - 2017-12-18 - BACKHAUL 4K h265 E-AC3\The Brian Setzer Orchestra - Christmas Rocks - The Granada Theatre, Santa Barbara, CA, 12-18-2017 BACKHAUL 4K h265 E-AC3 2.0-ALANiS.tsFormat                                   : MPEG-TSFile size                                : 52.7 GiBDuration                                 : 1 h 35 minOverall bit rate mode                    : VariableOverall bit rate                         : 79.4 Mb/sVideoID                                       : 481 (0x1E1)Menu ID                                  : 1 (0x1)Format                                   : HEVCFormat/Info                              : High Efficiency Video CodingFormat profile                           : Main 10@L5.1@HighCodec ID                                 : 36Duration                                 : 1 h 35 minBit rate                                 : 75.0 Mb/sWidth                                    : 3 840 pixelsHeight                                   : 2 160 pixelsDisplay aspect ratio                     : 16:9Frame rate                               : 59.940 (60000/1001) FPSColor space                              : YUVChroma subsampling                       : 4:2:0Bit depth                                : 10 bitsBits/(Pixel*Frame)                       : 0.151Stream size                              : 49.8 GiB (94%)Color range                              : LimitedColor primaries                          : BT.2020Transfer characteristics                 : HLG / BT.2020 (10-bit)Matrix coefficients                      : BT.2020 non-constantAudio #1ID                                       : 482 (0x1E2)Menu ID                                  : 1 (0x1)Format                                   : E-AC-3Format/Info                              : Enhanced Audio Coding 3Codec ID                                 : 6Duration                                 : 1 h 35 minBit rate mode                            : ConstantBit rate                                 : 384 kb/sChannel(s)                               : 2 channelsChannel positions                        : Front: L RSampling rate                            : 48.0 kHzFrame rate                               : 187.500 FPS (256 SPF)Compression mode                         : LossyDelay relative to video                  : 36 msStream size                              : 261 MiB (0%)Language                                 : EnglishLanguage, more info                      : Clean effectsService kind                             : Complete MainAudio #2ID                                       : 483 (0x1E3)Menu ID                                  : 1 (0x1)Format                                   : E-AC-3Format/Info                              : Enhanced Audio Coding 3Codec ID                                 : 6Duration                                 : 1 h 35 minBit rate mode                            : ConstantBit rate                                 : 96.0 kb/sChannel(s)                               : 2 channelsChannel positions                        : Front: L RSampling rate                            : 48.0 kHzFrame rate                               : 187.500 FPS (256 SPF)Compression mode                         : LossyDelay relative to video                  : 4 msStream size                              : 65.3 MiB (0%)Language                                 : detLanguage, more info                      : Clean effectsService kind                             : Complete Main

Скриншоты

To download the content you need:
1. Download and install torrent client [for Windows] or for mobile system
2. Click on [Download]
Attention.
If the test YOU are NOT a ROBOT - does not work, then You are using an outdated browser.
Install the current browser and click on [Download]

Do not work with Yandex browser. Uploading files to them is erroneous.
Security: torrent client is allowed by Kaspersky.

[sexgirl.su].t717010.torrent 
Torrent: Registered [ 2021-01-10 08:00 ] · 0893CA4AEC8BAF5F1A326914A44725E0B8E40E6E

Download .torrent

Download

264 KB

Status: checked
Completed: 0 times
Size: 52.75 GB
terms.php
[Profile] [PM]
Display posts:    
Reply to topic

Current time is: 16-Jan 17:04

All times are UTC ± 0



You cannot post new topics in this forum
You cannot reply to topics in this forum
You cannot edit your posts in this forum
You cannot delete your posts in this forum
You cannot vote in polls in this forum
You cannot attach files in this forum
You can download files in this forum