[TR24][BR] Styx - The Mission (CD-Bluray-Edition) - 2017/2018 (Progressive Rock)

Reply to topic
DL-List and Torrent activity
Size:  944 MB   |    Registered:  3 months 2 days   |    Completed:  0 times

Seeder not seen: Never

 
   
 
 
Author Message

star21 ®

Gender: Female

Longevity: 5 years 5 months

Posts: 262231

Location: Екатеринбург

Post 10-Jan-2021 08:00

[Quote]

Styx / The Mission Формат записи/Источник записи: [TR24][BR]
Наличие водяных знаков: Нет
Издание: CD-Bluray-Edition
Год издания/переиздания диска: 2017/2018
Жанр: Progressive Rock
Издатель (лейбл): UMe
Продолжительность: 00:42:10
Наличие сканов в содержимом раздачи: Только обложка альбомаТреклист:
  • Overture [1:23]
    • Gone Gone Gone [2:08]
    • Hundred Million Miles From Home [3:40]
    • Trouble At The Big Show [2:30]
    • Locomotive [5:04]
    • Radio Silence [4:19]
    • The Greater Good [4:10]
    • Time May Bend [2:31]
    • Ten Thousand Ways [1:22]
    • Red Storm [6:04]
    • All Systems Stable [0:18]
    • Khedive [2:04]
    • The Outpost [3:51]
    • Mission To Mars [2:46]
      Контейнер: FLAC (*.flac)
      Тип рипа: tracksРазрядность: 24/96
      Формат: PCM
      Количество каналов: 2.0

      Лог проверки качества

      foobar2000 1.1.5 / Dynamic Range Meter 1.1.0log date: 2018-12-16 16:02:50--------------------------------------------------------------------------------Analyzed: Styx / The Mission--------------------------------------------------------------------------------DR         Peak         RMS     Duration Track--------------------------------------------------------------------------------DR6       -0.03 dB    -8.64 dB      1:26 01-OvertureDR7       -0.29 dB    -9.03 dB      2:08 02-Gone Gone GoneDR7       -0.40 dB    -9.83 dB      3:40 03-Hundred Million Miles From HomeDR8       -0.28 dB   -11.85 dB      2:30 04-Trouble At The Big ShowDR9       -0.38 dB   -13.15 dB      5:04 05-LocomotiveDR8       -0.40 dB   -10.82 dB      4:17 06-Radio SilenceDR8       -0.47 dB   -11.24 dB      4:10 07-The Greater GoodDR9       -0.33 dB   -12.53 dB      2:34 08-Time May BendDR8       -0.51 dB   -12.35 dB      1:19 09-Ten Thousand WaysDR8       -0.27 dB   -10.87 dB      6:04 10-Red StormDR14      -5.65 dB   -25.79 dB      0:18 11-All Systems StableDR9       -0.52 dB   -12.20 dB      2:04 12-KhediveDR8       -0.39 dB   -11.01 dB      3:51 13-The OutpostDR7       -0.40 dB   -10.75 dB      2:46 14-Mission To Mars--------------------------------------------------------------------------------Number of tracks:  14Official DR value: DR8Samplerate:        96000 HzChannels:          2Bits per sample:   24Bitrate:           3128 kbpsCodec:             FLAC================================================================================
      Источник (релизер): TBur

      Состав

      Styx:
      Tommy Shaw: vocals, acoustic & electric guitars, mandolin
      James Young: vocals, electric guitars
      Chuck Panozzo: bass guitar on "Hundred Million Miles from Home"
      Todd Sucherman: drums, percussion, waterphone
      Lawrence Gowan: vocals, piano, Hammond B3 organ, synthesizers
      Ricky Phillips: bass guitar
      Guest:
      Will Evankovich: additional synthesizers, guitars, sound effects

      Об исполнителе (группе)

      Styx is an American rock band from Chicago that formed in 1972 and became famous for its albums released in the late 1970s and early 1980s. They are best known for melding hard rock guitar balanced with acoustic guitar, synthesizers mixed with acoustic piano, upbeat tracks with power ballads, and incorporating elements of international musical theatre. The band established itself with a progressive rock sound in the 1970s, and began to incorporate pop rock and soft rock elements in the 1980s.Styx is best known for the hit songs "Lady", "Come Sail Away", "Babe", "Boat on the River", "The Best of Times", "Too Much Time on My Hands", "Renegade" and "Mr. Roboto". Other major hits include "Show Me the Way" and "Don't Let It End". Styx has had 4 consecutive albums certified multi-platinum by the RIAA as well as 16 top 40 singles in the US, 8 of which hit the top 10.-- wikipedia

      Об альбоме (сборнике)

      The Mission is the sixteenth studio album by the band Styx, released on June 16, 2017 through UMe.[3] It is the band's first studio album since 2005's Big Bang Theory, their first album of original material since 2003's Cyclorama, and their highest-charting studio album in the United States since 1983's Kilroy Was Here, reaching #45 on the Billboard 200. A concept album, it tells the story of a mission to the planet Mars in the year 2033.[3] The album's story was written by Tommy Shaw and Will Evankovich.The album was conceived in 2015 when Tommy Shaw composed the guitar riff that became the record's closing track "Mission to Mars". The first lines Shaw wrote were "Now we can say it / This is the day / We'll be on our way / On our mission to Mars". The story was then formed around this idea.Styx announced the album in conjunction with the release of the lead single "Gone Gone Gone", while "Radio Silence" and "Hundred Million Miles from Home" were later made available prior to the album's release.-- wikipedia
  • To download the content you need:
    1. Download and install torrent client [for Windows] or for mobile system
    2. Click on [Download]
    Attention.
    If the test YOU are NOT a ROBOT - does not work, then You are using an outdated browser.
    Install the current browser and click on [Download]

    Do not work with Yandex browser. Uploading files to them is erroneous.
    Security: torrent client is allowed by Kaspersky.

    [sexgirl.su].t716992.torrent 
    Torrent: Registered [ 2021-01-10 08:00 ] · 766957D21C7760D3D701E59E1226F8E1F2C32A61

    Download .torrent

    Download

    20 KB

    Status: checked
    Completed: 0 times
    Size: 944 MB
    terms.php
    [Profile] [PM]
    Display posts:    
    Reply to topic

    Current time is: 12-Apr 19:10

    All times are UTC ± 0



    You cannot post new topics in this forum
    You cannot reply to topics in this forum
    You cannot edit your posts in this forum
    You cannot delete your posts in this forum
    You cannot vote in polls in this forum
    You cannot attach files in this forum
    You can download files in this forum