Гранд Тур / The Grand Tour / Сезон: 4 / Серия: 1-2 (?) [2019-2020, Великобритания, США, Автопередача, HEVC, HDR, WEB-DL 2160p] MVO (AlexFilm) + Original + Sub (Rus, Eng)

Reply to topic
DL-List and Torrent activity
Size:  20.33 GB   |    Registered:  18 days   |    Completed:  0 times

Seeder not seen: Never

 
   
 
 
Author Message

star21 ®

Gender: Female

Longevity: 5 years 2 months

Posts: 262232

Location: Екатеринбург

Post 04-Jan-2021 13:50

[Quote]

Гранд Тур | The Grand Tour Год выпуска: 2019-2020
Страна: Великобритания, США
Жанр: Автопередача
Продолжительность: ~ 01:30:00
Перевод: Профессиональный (многоголосый закадровый) AlexFilmРежиссёр: Фил Чурчуорд, Кит Линч Робинсон, Гэвин Уайтхед
В ролях: Джереми Кларксон, Ричард Хаммонд, Джеймс МэйОписание: Гранд Тур — это новое автомобильное шоу во главе с неизменной тройкой легендарных ведущих — Джереми Кларксоном, Ричардом Хаммондом и Джеймсом Мэйем. Распрощавшись с Top Gear, они создали новое детище в области автомобильных развлекательных шоу.Релизер АКТЕР aka CEBEPu2D
Видеоряд от GHOSTS, ROCCaT
Работа со звуком AlexFilm - Wentworth_Miller & KeedofВсе раздачи сериала [imdb]https://www.imdb.com/title/tt5712554[/imdb]Качество: WEB-DL (2160p)
Формат: MKV
Видео: HEVC, 14.9 Mбит/с, 3840x2160, 10 Бит, 25,000 fps, ~0.072 bit/pixel
Аудио Rus: AC3, 48 kHz, 6 ch, 384 kbps |AlexFilm|
Аудио Eng: E-AC3, 48 kHz, 6 ch, 640 kbps|Original|
Субтитры: Русские (Amazon), английские

Реклама: Отсутствует

Список серий

01. The Grand Tour Presents: Seamen
02. The Grand Tour Presents: A Massive Hunt

Внимание! Раздача ведётся путём добавления новых серий

Внимание! Раздача ведётся путём добавления новых серий; при каждом добавлении создаётся новый торрент. Чтобы начать докачку новой серии, пользователям необходимо сделать следующее:
(1) остановить скачивание,
(2) удалить старый торрент у себя из клиента (старые серии удалять не надо),
(3) скачать новый торрент и запустить его у себя в клиенте вместо старого, при этом указать клиенту путь в старую папку куда и должно происходить скачивание новых серий.Ваш клиент при этом должен произвести хеширование (проверку) старой папки (если не производит сам - помогите ему сделать это), и будет докачивать только те серии которых у вас ещё нет. Старые серии при этом не удаляются, а продолжают раздаваться!Eсли вы уже удалили старые серии, то предотвратить повторную закачку старых серий можно, отжав галочку в соответствующих местах при запуске нового торрента. По возможности, желательно не удалять старые серии как можно дольше чтобы релизёр не столько продолжал раздавать старые серии, а смог сконцентрироваться на новых.

MediaInfo

Видео
Идентификатор : 1
Формат : HEVC
Формат/Информация : High Efficiency Video Coding
Коммерческое название : HDR10
Профиль формата : Main 10@L5@Main
Идентификатор кодека : V_MPEGH/ISO/HEVC
Продолжительность : 1 ч. 31 м.
Битрейт : 14,9 Мбит/сек
Ширина : 3840 пикселей
Высота : 2160 пикселей
Соотношение сторон : 16:9
Режим частоты кадров : Постоянный
Частота кадров : 25,000 кадров/сек
Стандарт вещания : NTSC
Цветовое пространство : YUV
Субдискретизация насыщенности : 4:2:0 (Type 2)
Битовая глубина : 10 бит
Бит/(Пиксели*Кадры) : 0.072
Размер потока : 9,51 Гбайт (94%)
Язык : English
Default : Да
Forced : Нет
Цветовой диапазон : Limited
Основные цвета : BT.2020
Характеристики трансфера : PQ
Коэффициенты матрицы : BT.2020 non-constant
MasteringDisplay_ColorPrimaries : BT.709
MasteringDisplay_Luminance : min: 0.0001 cd/m2, max: 1000 cd/m2
MaxCLL : 999 cd/m2
MaxFALL : 215 cd/m2Аудио #1
Идентификатор : 2
Формат : AC-3
Формат/Информация : Audio Coding 3
Идентификатор кодека : A_AC3
Продолжительность : 1 ч. 31 м.
Вид битрейта : Постоянный
Битрейт : 384 Кбит/сек
Каналы : 6 каналов
Расположение каналов : Front: L C R, Side: L R, LFE
Частота : 48,0 КГц
Частота кадров : 31,250 кадров/сек (1536 SPF)
Битовая глубина : 16 бит
Метод сжатия : С потерями
Размер потока : 252 Мбайт (2%)
Язык : Russian
ServiceKind/String : Complete Main
Default : Да
Forced : НетАудио #2
Идентификатор : 3
Формат : E-AC-3
Формат/Информация : Enhanced Audio Coding 3
Идентификатор кодека : A_EAC3
Продолжительность : 1 ч. 31 м.
Вид битрейта : Постоянный
Битрейт : 640 Кбит/сек
Каналы : 6 каналов
Расположение каналов : Front: L C R, Side: L R, LFE
Частота : 48,0 КГц
Частота кадров : 187,500 кадров/сек (256 SPF)
Метод сжатия : С потерями
Размер потока : 419 Мбайт (4%)
Язык : English
ServiceKind/String : Complete Main
Default : Нет
Forced : НетТекст #1
Идентификатор : 4
Формат : UTF-8
Идентификатор кодека : S_TEXT/UTF8
Идентификатор кодека/Информация : UTF-8 Plain Text
Продолжительность : 1 ч. 30 м.
Битрейт : 142 бит/сек
ElementCount : 1487
Размер потока : 94,5 Кбайт (0%)
Заголовок : Russian
Язык : Russian
Default : Нет
Forced : НетТекст #2
Идентификатор : 5
Формат : UTF-8
Идентификатор кодека : S_TEXT/UTF8
Идентификатор кодека/Информация : UTF-8 Plain Text
Продолжительность : 1 ч. 30 м.
Битрейт : 82 бит/сек
ElementCount : 1571
Размер потока : 54,7 Кбайт (0%)
Заголовок : English
Язык : English
Default : Нет
Forced : Нет

Скриншоты


Советую посмотреть:The Witcher 4К HDR 2160pWhite Collar 5 сезон WEBrip 1080pPS убедительная просьба скачавших оставаться на раздаче подольше, желательно вечно

To download the content you need:
1. Download and install torrent client [for Windows] or for mobile system
2. Click on [Download]
Attention.
If the test YOU are NOT a ROBOT - does not work, then You are using an outdated browser.
Install the current browser and click on [Download]

Do not work with Yandex browser. Uploading files to them is erroneous.
Security: torrent client is allowed by Kaspersky.

[sexgirl.su].t714408.torrent 
Torrent: Registered [ 2021-01-04 13:50 ] · 9ADFA601A1BCF5592AB049D92F456E367F8C87C3

Download .torrent

Download

26 KB

Status: checked
Completed: 0 times
Size: 20.33 GB
terms.php
[Profile] [PM]
Display posts:    
Reply to topic

Current time is: 23-Jan 13:32

All times are UTC ± 0



You cannot post new topics in this forum
You cannot reply to topics in this forum
You cannot edit your posts in this forum
You cannot delete your posts in this forum
You cannot vote in polls in this forum
You cannot attach files in this forum
You can download files in this forum