Hinagiku Virgin Lost Club e Youkoso / Добро пожаловать в кружок потери девственности Хинагику (Mediabank, Queen Bee) (ep. 1-2 of 2) [cen] [2019, school, virgin, meganekko, big breast, oral, group, creampie, DVDRip] [jap / rus / eng / chi] [upscale -

Reply to topic
DL-List and Torrent activity
Size:  925 MB   |    Registered:  1 month 8 days   |    Completed:  0 times

Seeder not seen: Never

 
   
 
 
Author Message

star21 ®

Gender: Female

Longevity: 5 years 2 months

Posts: 262232

Location: Екатеринбург

Post 11-Dec-2020 12:45

[Quote]

Hinagiku Virgin Lost Club e Youkoso
ヒナギクヴァージンロストクラブへようこそ
Добро пожаловать в кружок потери девственности Хинагику

Год выпуска: 2019
Жанр: school, virgin, meganekko, big breast, oral, group, creampie
Серии: ep. 1-2 of 2
Продолжительность: 2*20mn
Цензура: Есть во всех файлах
Озвучка: Японская оригинальная
Субтитры: Русские [Тёмная Камбала] внешние ASS
Субтитры: Английские [SakuraCircle] внешние ASS
Субтитры: Китайские [Haretahoo.sub], [Maho.sub] внешние ASS
Автор оригинала: Akatsuki Myuuto
Студия: Mediabank, Queen Bee
Описание: Young Otonashi Suguru dreams of penetrating the school idol Moegi, and one day he is flabbergasted when he discovers a love letter from his crush. When Suguru meets with the sender of the letter his eyes are covered before he can even see her. A voice tells him that he desires to start a casual sexual relation, but because she is embarrassed, Suguru's eyes must be covered and he must keep it as a secret. From the voice, Suguru assumes that this person is nobody else but Moegi and agrees to the arrangement. Little did Suguru know that the person wasn't Moegi, but Hinagiku, who alongside her friend Galcchi, Suguru's stepsisters, Miu and Nano, Nano's friend, Minamino had come together to pose as Moegi in order to have sex with their crush who only seemed interested in Moegi.
anidb
Качество видео: DVDrip [торрент иваниваныч]
Разрешение видео: 720p
Формат видео: MKV
Видео: 1280-720, 16-9, 23.976 fps, AVC, ~2900 kbps
Аудио: jpn, AC-3, Stereo, 48.0 KHz, 256 kbps

Скринлисты


MediaInfo 01

General
Unique ID : 211056693740047811981723905659723104749 (0x9EC80A67A0AD82B89BE3D3D3D8C4C1ED)
Complete name : Hinagiku_virgin_lost_club_e_youkoso_01_[1280-720][Galan_rus_raw][BE9A9B6A].mkv
Format : Matroska
Format version : Version 2
File size : 446 MiB
Duration : 19 min 57 s
Overall bit rate : 3 128 kb/s
Movie name : рип торрент иваниваныч
Encoded date : UTC 2020-11-30 13:15:32
Writing application : mkvmerge v7.8.0 ('River Man') 32bit built on Apr 3 2015 12:11:22
Writing library : libebml v1.3.1 + libmatroska v1.4.2
Video
ID : 1
Format : AVC
Format/Info : Advanced Video Codec
Format profile : High 10@L4.1
Format settings : CABAC / 8 Ref Frames
Format settings, CABAC : Yes
Format settings, Reference frames : 8 frames
Codec ID : V_MPEG4/ISO/AVC
Duration : 19 min 57 s
Bit rate : 2 810 kb/s
Width : 1 280 pixels
Height : 720 pixels
Display aspect ratio : 16:9
Frame rate mode : Constant
Frame rate : 23.976 (24000/1001) FPS
Color space : YUV
Chroma subsampling : 4:2:0
Bit depth : 10 bits
Scan type : Progressive
Bits/(Pixel*Frame) : 0.127
Stream size : 401 MiB (90%)
Title : Hinagiku virgin lost club e youkoso 01
Writing library : x264 core 152 r2851kMod ba24899
Encoding settings : cabac=1 / ref=8 / deblock=1:-2:-2 / analyse=0x3:0x133 / me=tesa / subme=9 / psy=1 / fade_compensate=0.00 / psy_rd=0.90:0.00 / mixed_ref=1 / me_range=24 / chroma_me=1 / trellis=2 / 8x8dct=1 / cqm=0 / deadzone=21,11 / fast_pskip=1 / chroma_qp_offset=-2 / threads=12 / lookahead_threads=2 / sliced_threads=0 / nr=0 / decimate=0 / interlaced=0 / bluray_compat=0 / constrained_intra=0 / bframes=9 / b_pyramid=2 / b_adapt=2 / b_bias=0 / direct=3 / weightb=1 / open_gop=0 / weightp=2 / keyint=240 / keyint_min=24 / scenecut=40 / intra_refresh=0 / rc=crf / mbtree=0 / crf=16.0000 / qcomp=0.75 / qpmin=0 / qpmax=38 / qpstep=4 / ip_ratio=1.40 / pb_ratio=1.30 / aq=1:0.90
Language : Japanese
Default : Yes
Forced : No
Color range : Limited
Color primaries : BT.709
Transfer characteristics : BT.709
Matrix coefficients : BT.709
Audio
ID : 2
Format : AC-3
Format/Info : Audio Coding 3
Commercial name : Dolby Digital
Codec ID : A_AC3
Duration : 19 min 57 s
Bit rate mode : Constant
Bit rate : 256 kb/s
Channel(s) : 2 channels
Channel layout : L R
Sampling rate : 48.0 kHz
Frame rate : 31.250 FPS (1536 SPF)
Compression mode : Lossy
Stream size : 36.5 MiB (8%)
Title : jpn
Language : Japanese
Service kind : Complete Main
Default : Yes
Forced : No
Menu
00:00:00.000 : en:Chapter 1
00:00:08.200 : en:Chapter 3
00:09:08.500 : en:Chapter 4
00:17:01.500 : en:Chapter 5
00:18:40.500 : en:Chapter 6
00:19:48.500 : en:Chapter 7

Отличия

От vattok – там обычный рип, здесь апскейл.
DVD-DVDrip

To download the content you need:
1. Download and install torrent client [for Windows] or for mobile system
2. Click on [Download]
Attention.
If the test YOU are NOT a ROBOT - does not work, then You are using an outdated browser.
Install the current browser and click on [Download]

Do not work with Yandex browser. Uploading files to them is erroneous.
Security: torrent client is allowed by Kaspersky.

[sexgirl.su].t708513.torrent 
Torrent: Registered [ 2020-12-11 12:45 ] · 319EA6A90D873D6CD8783CE0DF97F8E1345540CE

Download .torrent

Download

20 KB

Status: checked
Completed: 0 times
Size: 925 MB
terms.php
[Profile] [PM]
Display posts:    
Reply to topic

Current time is: 20-Jan 06:47

All times are UTC ± 0



You cannot post new topics in this forum
You cannot reply to topics in this forum
You cannot edit your posts in this forum
You cannot delete your posts in this forum
You cannot vote in polls in this forum
You cannot attach files in this forum
You can download files in this forum