Ane Chijo Max Heart / Сестра-нимфоманка (PoRO) (ep. 1-4 of 4) [cen] [2018-2019, incest, oral, big breast, paizuri, virgin, creampie, DVDRip] [jap / eng / chi / rus] [upscale - 720p]

Reply to topic
DL-List and Torrent activity
Size:  2.44 GB   |    Registered:  5 days   |    Completed:  0 times

Seeder not seen: Never

 
   
 
 
Author Message

star21 ®

Gender: Female

Longevity: 5 years

Posts: 262233

Location: Екатеринбург

Post 20-Nov-2020 09:55

[Quote]

Ane Chijo Max Heart
あねちじょ♥マックスハート
Сестра-нимфоманка

Год выпуска: 2018-2019
Жанр: incest, oral, big breast, paizuri, virgin, creampie
Серии: ep. 1-4 of 4
Продолжительность: 4*24mn
Цензура: Есть во всех файлах
Озвучка: Японская оригинальная
Субтитры: Английские [SakuraCircle] внешние ASS
Субтитры: Китайские [Haretahoo.sub], [Maho.sub] внешние ASS
Субтитры: Русские [Стейд] (ep. 1), [Maskot] (ep. 2-4) внешние ASS
Автор оригинала: Tachibana Pan
Студия: PoRO
Описание: Gifted with both beauty and intelligence, honor student, Kisaragi Sarasa, holds back her swelling desires and nosebleeds as the day has finally come. Her younger brother, Kira, was admitted into the same school as her, and to celebrate, she invited him to her room, preparing to give him her first time. Not realizing this, he goes in not suspecting a thing. In her see-through negligee, she jumps on him and stares him down with her eyes full of lust and breasts showing.
Source: hanime
anidb
Качество видео: DVDrip [торрент иваниваныч]
Разрешение видео: 720p
Формат видео: MKV
Видео: 1280-720, 16-9, 23.976 fps, AVC, ~2800-3400 kbps
Аудио 1: jpn, AC-3, Stereo, 48.0 KHz, 192 kbps
Аудио 2: jpn, AC-3, Stereo, 48.0 KHz, 192 kbps

Скринлисты




MediaInfo 01

General
Unique ID : 211967993961559111537588865203814587085 (0x9F778CF982A6EFEC92825F8BCD18DACD)
Complete name : Ane_chijo_max_heart_01_[1280-720][Galan_rus_raw][66C845C4].mkv
Format : Matroska
Format version : Version 2
File size : 602 MiB
Duration : 23 min 23 s
Overall bit rate : 3 601 kb/s
Movie name : рип торрент иваниваныч
Encoded date : UTC 2020-11-20 08:27:29
Writing application : mkvmerge v7.8.0 ('River Man') 32bit built on Apr 3 2015 12:11:22
Writing library : libebml v1.3.1 + libmatroska v1.4.2
Video
ID : 1
Format : AVC
Format/Info : Advanced Video Codec
Format profile : High 10@L4.1
Format settings : CABAC / 8 Ref Frames
Format settings, CABAC : Yes
Format settings, Reference frames : 8 frames
Codec ID : V_MPEG4/ISO/AVC
Duration : 23 min 23 s
Bit rate : 3 145 kb/s
Width : 1 280 pixels
Height : 720 pixels
Display aspect ratio : 16:9
Frame rate mode : Constant
Frame rate : 23.976 (24000/1001) FPS
Color space : YUV
Chroma subsampling : 4:2:0
Bit depth : 10 bits
Scan type : Progressive
Bits/(Pixel*Frame) : 0.142
Stream size : 526 MiB (87%)
Title : Ane chijo max heart 01
Writing library : x264 core 152 r2851kMod ba24899
Encoding settings : cabac=1 / ref=8 / deblock=1:-2:-2 / analyse=0x3:0x133 / me=tesa / subme=9 / psy=1 / fade_compensate=0.00 / psy_rd=0.90:0.00 / mixed_ref=1 / me_range=24 / chroma_me=1 / trellis=2 / 8x8dct=1 / cqm=0 / deadzone=21,11 / fast_pskip=1 / chroma_qp_offset=-2 / threads=12 / lookahead_threads=2 / sliced_threads=0 / nr=0 / decimate=0 / interlaced=0 / bluray_compat=0 / constrained_intra=0 / bframes=9 / b_pyramid=2 / b_adapt=2 / b_bias=0 / direct=3 / weightb=1 / open_gop=0 / weightp=2 / keyint=240 / keyint_min=24 / scenecut=40 / intra_refresh=0 / rc=crf / mbtree=0 / crf=14.0000 / qcomp=0.75 / qpmin=0 / qpmax=38 / qpstep=4 / ip_ratio=1.40 / pb_ratio=1.30 / aq=1:0.90
Language : Japanese
Default : Yes
Forced : No
Color range : Limited
Color primaries : BT.709
Transfer characteristics : BT.709
Matrix coefficients : BT.709
Audio #1
ID : 2
Format : AC-3
Format/Info : Audio Coding 3
Commercial name : Dolby Digital
Codec ID : A_AC3
Duration : 23 min 23 s
Bit rate mode : Constant
Bit rate : 192 kb/s
Channel(s) : 2 channels
Channel layout : L R
Sampling rate : 48.0 kHz
Frame rate : 31.250 FPS (1536 SPF)
Compression mode : Lossy
Stream size : 32.1 MiB (5%)
Title : jpn
Language : Japanese
Service kind : Complete Main
Default : Yes
Forced : No
Audio #2
ID : 3
Format : AC-3
Format/Info : Audio Coding 3
Commercial name : Dolby Digital
Codec ID : A_AC3
Duration : 23 min 23 s
Bit rate mode : Constant
Bit rate : 192 kb/s
Channel(s) : 2 channels
Channel layout : L R
Sampling rate : 48.0 kHz
Frame rate : 31.250 FPS (1536 SPF)
Compression mode : Lossy
Stream size : 32.1 MiB (5%)
Title : jpn no music
Language : Japanese
Service kind : Complete Main
Default : No
Forced : No
Menu
00:00:00.000 : en:Chapter 1
00:03:01.833 : en:Chapter 3
00:03:30.066 : en:Chapter 4
00:06:29.566 : en:Chapter 5
00:10:41.699 : en:Chapter 6
00:14:42.199 : en:Chapter 7
00:17:49.732 : en:Chapter 8
00:19:41.732 : en:Chapter 9
00:21:23.865 : en:Chapter 10

Отличия

От vattok – там обычный рип, здесь апскейл.
DVD-DVDrip

To download the content you need:
1. Download and install torrent client [for Windows] or for mobile system
2. Click on [Download]
Attention.
If the test YOU are NOT a ROBOT - does not work, then You are using an outdated browser.
Install the current browser and click on [Download]

Do not work with Yandex browser. Uploading files to them is erroneous.
Security: torrent client is allowed by Kaspersky.

[sexgirl.su].t707382.torrent 
Torrent: Registered [ 2020-11-20 09:55 ] · 4E677EFF980692F40DF21DB39D36C6DBB8813FD1

Download .torrent

Download

15 KB

Status: checked
Completed: 0 times
Size: 2.44 GB
terms.php
[Profile] [PM]
Display posts:    
Reply to topic

Current time is: 26-Nov 07:36

All times are UTC ± 0



You cannot post new topics in this forum
You cannot reply to topics in this forum
You cannot edit your posts in this forum
You cannot delete your posts in this forum
You cannot vote in polls in this forum
You cannot attach files in this forum
You can download files in this forum