Kansen 5: The Daybreak / Infection 5 ~The Daybreak~ / (Yoshizawa Akiho / Mary Jane) (ep. 1-3 of 3) [cen] [2012-2018 г., Assliking, Big tits, Blowjob, Cunnilingus, Group sex, Oral sex, 3xDVD5] [jap]

Reply to topic
DL-List and Torrent activity
Size:  3.64 GB   |    Registered:  9 days   |    Completed:  0 times

Seeder not seen: Never

 
   
 
 
Author Message

star21 ®

Gender: Female

Longevity: 3 years 11 months

Posts: 262239

Location: Екатеринбург

Post 09-Oct-2019 07:05

[Quote]

姦染5-THE Daybreak- | Kansen 5: The Daybreak | Infection 5 ~The Daybreak~ | Заражение 5 ~Рассвет~-
Год выпуска: 2012-2018
Страна: Япония-Жанр: assliking, big tits, blowjob, cunnilingus, group sex, oral sex
Продолжительность: 3 эп. по 20 мин.-Субтитры: Отсутствуют
Цензура: Присутствует-Режиссёр: Yoshizawa Akiho
Студия: Mary Jane-Описание:
Oogami Island is normally a peaceful isle with lush green scenery, but is now a place of depraved wanton lust. The contagion Unknown - Level 4 has become epidemic. 3 girls, Hyuuga Natsu, Ochi Akari, and Hanazawa Airi find themselves trapped in a sports facility where they are assaulted by the infected.-Информационные ссылки: AniDB || MAL || World Art || ХентайМаг-Список эпизодов:
01. Rape Harem
02. Rape Party
03. Route A in the world of despair and nightmares
-Исходник: DVD-5
Видео: MPEG2 | NTSC | 16x9 | 720x480 | 7800 Kbps
Аудио JAP: AC-3 | 48000Hz | 224 Kbps | 2ch

MediaInfo:

General
Complete name : H:\VIDEO_TS\VTS_01_1.VOB
Format : MPEG-PS
File size : 1 024 MiB
Duration : 2mn 7s
Overall bit rate : 67.5 Mbps
Video
ID : 224 (0xE0)
Format : MPEG Video
Format version : Version 2
Format profile : Main@Main
Format settings, BVOP : Yes
Format settings, Matrix : Default
Format settings, GOP : M=3, N=12
Duration : 2mn 7s
Bit rate : 65.9 Mbps
Maximum bit rate : 7 800 Kbps
Width : 720 pixels
Height : 480 pixels
Display aspect ratio : 16:9
Frame rate : 29.970 fps
Standard : NTSC
Color space : YUV
Chroma subsampling : 4:2:0
Bit depth : 8 bits
Scan type : Interlaced
Scan order : Bottom Field First
Compression mode : Lossy
Bits/(Pixel*Frame) : 6.365
Stream size : 1 000 MiB (98%)
Audio
ID : 189 (0xBD)-128 (0x80)
Format : AC-3
Format/Info : Audio Coding 3
Mode extension : CM (complete main)
Muxing mode : DVD-Video
Duration : 2mn 7s
Bit rate mode : Constant
Bit rate : 224 Kbps
Channel(s) : 2 channels
Channel positions : Front: L R
Sampling rate : 48.0 KHz
Bit depth : 16 bits
Compression mode : Lossy
Delay relative to video : -66ms
Stream size : 3.39 MiB (0%)

Меню:

Скриншоты:

Скринлист:


Исходник: DVD-5
Видео: MPEG2 | NTSC | 16x9 | 720x480 | 7880 Kbps
Аудио JAP: AC-3 | 48000Hz | 224 Kbps | 2ch

MediaInfo:

General
Complete name : H:\VIDEO_TS\VTS_01_1.VOB
Format : MPEG-PS
File size : 1 024 MiB
Duration : 1mn 59s
Overall bit rate : 71.8 Mbps
Video
ID : 224 (0xE0)
Format : MPEG Video
Format version : Version 2
Format profile : Main@Main
Format settings, BVOP : Yes
Format settings, Matrix : Default
Format settings, GOP : M=3, N=12
Duration : 1mn 59s
Bit rate : 70.1 Mbps
Maximum bit rate : 7 880 Kbps
Width : 720 pixels
Height : 480 pixels
Display aspect ratio : 16:9
Frame rate : 29.970 fps
Standard : NTSC
Color space : YUV
Chroma subsampling : 4:2:0
Bit depth : 8 bits
Scan type : Interlaced
Scan order : Bottom Field First
Compression mode : Lossy
Bits/(Pixel*Frame) : 6.770
Stream size : 1 000 MiB (98%)
Audio
ID : 189 (0xBD)-128 (0x80)
Format : AC-3
Format/Info : Audio Coding 3
Mode extension : CM (complete main)
Muxing mode : DVD-Video
Duration : 1mn 59s
Bit rate mode : Constant
Bit rate : 224 Kbps
Channel(s) : 2 channels
Channel positions : Front: L R
Sampling rate : 48.0 KHz
Bit depth : 16 bits
Compression mode : Lossy
Delay relative to video : -66ms
Stream size : 3.19 MiB (0%)

Меню:

Скриншоты:

Скринлист:


Исходник: DVD-5
Видео: MPEG2 | NTSC | 16x9 | 720x480 | 5629 Kbps
Аудио JAP: AC-3 | 48000Hz | 256 Kbps | 2ch
Аудио JAP: AC-3 | 48000Hz | 256 Kbps | 2ch

MediaInfo:

General
Complete name : H:\VIDEO_TS\VTS_01_1.VOB
Format : MPEG-PS
File size : 1 024 MiB
Duration : 22 min 50 s
Overall bit rate mode : Variable
Overall bit rate : 6 266 kb/s
Video
ID : 224 (0xE0)
Format : MPEG Video
Format version : Version 2
Format profile : Main@Main
Format settings : CustomMatrix / BVOP
Format settings, BVOP : Yes
Format settings, Matrix : Custom
Format settings, GOP : M=3, N=15
Format settings, picture st : Frame
Duration : 22 min 50 s
Bit rate mode : Variable
Bit rate : 5 629 kb/s
Maximum bit rate : 8 500 kb/s
Width : 720 pixels
Height : 480 pixels
Display aspect ratio : 16:9
Frame rate : 29.970 (30000/1001) FPS
Standard : NTSC
Color space : YUV
Chroma subsampling : 4:2:0
Bit depth : 8 bits
Scan type : Interlaced
Scan order : Top Field First
Compression mode : Lossy
Bits/(Pixel*Frame) : 0.543
Time code of first frame : 01:00:00:00
Time code source : Group of pictures header
GOP, Open/Closed : Open
GOP, Open/Closed of first f : Closed
Stream size : 920 MiB (90%)
Audio #1
ID : 189 (0xBD)-128 (0x80)
Format : AC-3
Format/Info : Audio Coding 3
Commercial name : Dolby Digital
Muxing mode : DVD-Video
Duration : 22 min 50 s
Bit rate mode : Constant
Bit rate : 256 kb/s
Channel(s) : 2 channels
Channel layout : L R
Sampling rate : 48.0 kHz
Frame rate : 31.250 FPS (1536 SPF)
Bit depth : 16 bits
Compression mode : Lossy
Stream size : 41.8 MiB (4%)
Service kind : Complete Main
Audio #2
ID : 189 (0xBD)-129 (0x81)
Format : AC-3
Format/Info : Audio Coding 3
Commercial name : Dolby Digital
Muxing mode : DVD-Video
Duration : 22 min 50 s
Bit rate mode : Constant
Bit rate : 256 kb/s
Channel(s) : 2 channels
Channel layout : L R
Sampling rate : 48.0 kHz
Frame rate : 31.250 FPS (1536 SPF)
Bit depth : 16 bits
Compression mode : Lossy
Stream size : 41.8 MiB (4%)
Service kind : Complete Main

Меню:

Скриншоты:

Скринлист:

Чем воспроизводить образ диска формата *.ISO-* Данное видео можно использовать в создании сторонних релизов без предварительного согласования с автором
** Релизера можно поддержать материально. Реквизиты - в подписи. (Правила прочитаны)
*** Куплено за свои кровные | Self-purchased DVD

To download the content you need:
1. Download and install torrent client [for Windows] or for mobile system
2. Click on [Download]
Attention.
If the test YOU are NOT a ROBOT - does not work, then You are using an outdated browser.
Install the current browser and click on [Download]
Security: torrent client is allowed by Kaspersky.

[sexgirl.su].t683389.torrent 
Torrent: Registered [ 2019-10-09 07:05 ] · 2BFAED884E5A52805B4E15605184B47F174FB5D6

Download .torrent

Download

19 KB

Status: checked
Completed: 0 times
Size: 3.64 GB
terms.php
[Profile] [PM]
Display posts:    
Reply to topic

Current time is: 18-Oct 18:29

All times are UTC ± 0



You cannot post new topics in this forum
You cannot reply to topics in this forum
You cannot edit your posts in this forum
You cannot delete your posts in this forum
You cannot vote in polls in this forum
You cannot attach files in this forum
You can download files in this forum