Vice president's after school (ep. 1 of 1) [2014] / SP (ep. 1 of 1 + bonus) [2014] / Dorei Nikki (Slave Diary) (ep. 1 of 1) [2016] (Prison school, Shiraki Meiko) (sakamotoJ) [cen] [parody, big breast, oral, paizuri, creampie, WEB-DL] [jap] [720p

Reply to topic
DL-List and Torrent activity
Size:  4.75 GB   |    Registered:  10 months 2 days   |    Completed:  0 times

Seeder not seen: Never

 
   
 
 
Author Message

star21 ®

Gender: Female

Longevity: 4 years 9 months

Posts: 262233

Location: Екатеринбург

Post 09-Oct-2019 07:05

[Quote]

Vice president's after school
副会長の放課後

Год выпуска: 2014
Жанр: parody, big breast, oral, paizuri, creampie
Серии: ep. 1 of 1
Продолжительность: 17mn
Цензура: Есть во всех файлах
Озвучка: Японская оригинальная
Студия: sakamotoJ
Описание: Secret of the hidden student council's vice president!
https://anidb.net/ch75412
http://www.dlsite.com/ecchi-eng/work/=/product_id/RE143313.html
Доп. информация: Колматрица неправильная 601.
Качество видео: WEB-DL
Разрешение видео: 720p
Формат видео: MPG
Видео: 1280-720, 16-9, 24 fps, MPEG2, 10-11 mbps
Аудио: jpn, AC-3, Stereo, 48.0 KHz, 224 kbps

Скринлисты







MediaInfo 01

General
Complete name : 01. Vice president's after school (2014) 01 [709D4CC1].mpg
Format : MPEG-PS
File size : 37.1 MiB
Duration : 30 s 16 ms
Overall bit rate mode : Variable
Overall bit rate : 10.4 Mb/s
Writing library : encoded by TMPGEnc Video Mastering Works 5 Version. 5.0.5.32
Video
ID : 224 (0xE0)
Format : MPEG Video
Format version : Version 2
Format profile : Main@High
Format settings : CustomMatrix / BVOP
Format settings, BVOP : Yes
Format settings, Matrix : Custom
Format settings, GOP : M=3, N=13
Duration : 30 s 0 ms
Bit rate mode : Variable
Bit rate : 9 951 kb/s
Maximum bit rate : 38.5 Mb/s
Width : 1 280 pixels
Height : 720 pixels
Display aspect ratio : 16:9
Frame rate : 24.000 FPS
Standard : Component
Color space : YUV
Chroma subsampling : 4:2:0
Bit depth : 8 bits
Scan type : Progressive
Compression mode : Lossy
Bits/(Pixel*Frame) : 0.450
Time code of first frame : 00:00:00:00
Time code source : Group of pictures header
GOP, Open/Closed : Closed
Stream size : 35.6 MiB (96%)
Writing library : TMPGEnc Video Mastering Works 5 Version. 5.0.5.32
Color primaries : BT.709
Transfer characteristics : BT.709
Matrix coefficients : BT.709
Audio
ID : 189 (0xBD)-128 (0x80)
Format : AC-3
Format/Info : Audio Coding 3
Commercial name : Dolby Digital
Muxing mode : DVD-Video
Duration : 30 s 16 ms
Bit rate mode : Constant
Bit rate : 224 kb/s
Channel(s) : 2 channels
Channel layout : L R
Sampling rate : 48.0 kHz
Frame rate : 31.250 FPS (1536 SPF)
Bit depth : 16 bits
Compression mode : Lossy
Stream size : 821 KiB (2%)
Service kind : Complete Main
- Vice President's After School SP
副会長の放課後SP

Год выпуска: 2014
Жанр: parody, big breast, oral, paizuri, creampie
Серии: ep. 1 of 1 + bonus
Продолжительность: 17mn
Цензура: Есть во всех файлах
Озвучка: Японская оригинальная
Студия: sakamotoJ
Описание: The sultry student council VP in tight rubber is back!
https://anidb.net/ch75412
http://www.dlsite.com/ecchi-eng/work/=/product_id/RE145759.html
Качество видео: WEB-DL
Разрешение видео: 720p
Формат видео: MP4
Видео: 1280-720, 16-9, 24 fps, AVC, 11.6 mbps
Аудио: jpn, AAC, Stereo, 48.0 KHz, 128 kbps

Скринлисты









MediaInfo 01

General
Complete name : 02. Vice president's after school SP (2014) 01 [B8DA5EA1].mp4
Format : MPEG-4
Format profile : Base Media / Version 2
Codec ID : mp42 (mp42/isom/avc1)
File size : 35.0 MiB
Duration : 30 s 0 ms
Overall bit rate mode : Variable
Overall bit rate : 9 780 kb/s
Writing application : TMPGEnc Video Mastering Works 5 Version. 5.0.5.32
Video
ID : 2
Format : AVC
Format/Info : Advanced Video Codec
Format profile : High@L3.1
Format settings : CABAC / 3 Ref Frames
Format settings, CABAC : Yes
Format settings, RefFrames : 3 frames
Codec ID : avc1
Codec ID/Info : Advanced Video Coding
Duration : 30 s 0 ms
Bit rate mode : Variable
Bit rate : 9 649 kb/s
Nominal bit rate : 11.6 Mb/s
Maximum bit rate : 11.6 Mb/s
Width : 1 280 pixels
Height : 720 pixels
Display aspect ratio : 16:9
Frame rate mode : Constant
Frame rate : 24.000 FPS
Standard : NTSC
Color space : YUV
Chroma subsampling : 4:2:0
Bit depth : 8 bits
Scan type : Progressive
Bits/(Pixel*Frame) : 0.436
Stream size : 34.5 MiB (99%)
Writing library : x264 core 112
Encoding settings : cabac=1 / ref=3 / deblock=1:0:0 / analyse=0x3:0x113 / me=hex / subme=7 / psy=1 / psy_rd=1.00:0.00 / mixed_ref=1 / me_range=16 / chroma_me=1 / trellis=1 / 8x8dct=1 / cqm=2 / deadzone=21,11 / fast_pskip=1 / chroma_qp_offset=-4 / threads=12 / sliced_threads=0 / slices=1 / nr=0 / decimate=1 / interlaced=0 / constrained_intra=0 / bframes=3 / b_pyramid=0 / b_adapt=1 / b_bias=0 / direct=1 / weightb=1 / open_gop=0 / weightp=2 / keyint=250 / keyint_min=24 / scenecut=40 / intra_refresh=0 / rc_lookahead=40 / rc=2pass / mbtree=1 / bitrate=11579 / ratetol=1.0 / qcomp=0.60 / qpmin=5 / qpmax=51 / qpstep=4 / cplxblur=20.0 / qblur=0.5 / vbv_maxrate=11579 / vbv_bufsize=11567 / nal_hrd=vbr / frame-packing=0 / ip_ratio=1.40 / aq=1:1.00
Color range : Limited
Color primaries : BT.709
Transfer characteristics : BT.709
Matrix coefficients : BT.709
Codec configuration box : avcC
Audio
ID : 1
Format : AAC LC
Format/Info : Advanced Audio Codec Low Complexity
Codec ID : mp4a-40-2
Duration : 29 s 995 ms
Bit rate mode : Variable
Bit rate : 128 kb/s
Maximum bit rate : 576 kb/s
Channel(s) : 2 channels
Channel layout : L R
Sampling rate : 48.0 kHz
Frame rate : 46.875 FPS (1024 SPF)
Compression mode : Lossy
Stream size : 468 KiB (1%)

-
Dorei Nikki (Slave Diary)
どれい日記

Год выпуска: 2016
Жанр: parody, big breast, oral, paizuri, creampie
Серии: ep. 1 of 1
Продолжительность: 15mn
Цензура: Есть во всех файлах
Озвучка: Японская оригинальная
Студия: sakamotoJ
Описание: Deeds of a VP and sow behind bars
https://anidb.net/ch75412
http://www.dlsite.com/ecchi-eng/work/=/product_id/RE173361.html
Качество видео: WEB-DL
Разрешение видео: 1080p
Формат видео: MP4
Видео: 1920-1080, 16-9, 24 fps, AVC, 14-15 mbps
Аудио: jpn, AAC, Stereo, 48.0 KHz, 318 kbps

Скринлисты





MediaInfo 01

General
Complete name : 03. Dorei nikki (Slave diary) (2016) 01 [D05F92BA].mp4
Format : MPEG-4
Format profile : Base Media / Version 2
Codec ID : mp42 (mp42/mp41)
File size : 67.0 MiB
Duration : 39 s 167 ms
Overall bit rate mode : Variable
Overall bit rate : 14.3 Mb/s
Encoded date : UTC 2016-03-16 07:27:30
Tagged date : UTC 2016-03-16 07:27:31
TIM : 00:00:00:00
TSC : 24
TSZ : 1
Video
ID : 1
Format : HEVC
Format/Info : High Efficiency Video Coding
Format profile : Main@L4.1@Main
Codec ID : hvc1
Codec ID/Info : High Efficiency Video Coding
Duration : 39 s 167 ms
Bit rate : 14.0 Mb/s
Width : 1 920 pixels
Height : 1 080 pixels
Display aspect ratio : 16:9
Frame rate mode : Constant
Frame rate : 24.000 FPS
Color space : YUV
Chroma subsampling : 4:2:0
Bit depth : 8 bits
Bits/(Pixel*Frame) : 0.282
Stream size : 65.5 MiB (98%)
Language : English
Encoded date : UTC 2016-03-16 07:27:30
Tagged date : UTC 2016-03-16 07:27:30
Color range : Full
Color primaries : BT.709
Transfer characteristics : BT.709
Matrix coefficients : BT.709
Codec configuration box : hvcC
Audio
ID : 2
Format : AAC LC
Format/Info : Advanced Audio Codec Low Complexity
Codec ID : mp4a-40-2
Duration : 39 s 167 ms
Source duration : 39 s 211 ms
Bit rate mode : Variable
Bit rate : 317 kb/s
Maximum bit rate : 408 kb/s
Channel(s) : 2 channels
Channel layout : L R
Sampling rate : 48.0 kHz
Frame rate : 46.875 FPS (1024 SPF)
Compression mode : Lossy
Stream size : 1.48 MiB (2%)
Source stream size : 1.48 MiB (2%)
Language : English
Encoded date : UTC 2016-03-16 07:27:30
Tagged date : UTC 2016-03-16 07:27:30

To download the content you need:
1. Download and install torrent client [for Windows] or for mobile system
2. Click on [Download]
Attention.
If the test YOU are NOT a ROBOT - does not work, then You are using an outdated browser.
Install the current browser and click on [Download]

Do not work with Yandex browser. Uploading files to them is erroneous.
Security: torrent client is allowed by Kaspersky.

[sexgirl.su].t683388.torrent 
Torrent: Registered [ 2019-10-09 07:05 ] · 11245DAB8AE6DE2D1BC2DA99A65044D59FB65968

Download .torrent

Download

29 KB

Status: checked
Completed: 0 times
Size: 4.75 GB
terms.php
[Profile] [PM]
Display posts:    
Reply to topic

Current time is: 12-Aug 07:04

All times are UTC ± 0



You cannot post new topics in this forum
You cannot reply to topics in this forum
You cannot edit your posts in this forum
You cannot delete your posts in this forum
You cannot vote in polls in this forum
You cannot attach files in this forum
You can download files in this forum