Nageki no Kenkou Yuuryouji / Frantic, Frustrated and Female / Неистовая и неудовлетворённая / FFF / F3 (Masakazu Akan, AIC) (ep. 1-3) [uncen] [1994-1995, Comedy, Mystic, Group sex, Oral sex, Yuri, DVDRip] [jap / eng / ita / fre / spa / por / pol / ru

Reply to topic
DL-List and Torrent activity
Size:  1.7 GB   |    Registered:  4 months 27 days   |    Completed:  0 times

Seeder not seen: Never

 
   
 
 
Author Message

star21 ®

Gender: Female

Longevity: 4 years 1 month

Posts: 262237

Location: Екатеринбург

Post 11-Jul-2019 07:35

[Quote]

嘆きの健康優良児- Год выпуска: 1994-1995
Жанр: Comedy, Mystic, Group sex, Oral sex, Yuri
Серии: ep. 1-3 of 3
Продолжительность: 27:00, 25:23, 28:13
Цензура: Отсутствует
Язык: Японский, оригинальный
Озвучка: Английская, дублированная (внешняя)
Субтитры: Русские [Ramzes-III] (внутренние), ASS
Субтитры: Дополнительные, 8 штук (внутренние), ASS
Режиссер: Masakazu Akan
Студия: AIC
Описание:
Хироэ Агава испытывает определённые проблемы в сексе — ей никогда не удаётся испытать оргазм. Для большей стимуляции она решает использовать вибратор своей соседки по комнате Таками; девушка, увидев это, решает присоединиться к акту. После неудачной попытки довести Хироэ до оргазма к Таками приходит новая идея — она её гипнотизирует, внушая девушки нужные ощущения. Девушки решают довести «лечение» до конца и последовательно обращаются к медиуму и изобретателю.
Качество видео: DVDRip [Kitsune]
Формат видео: MKV
Видео: MPEG4 Video (H264), 768x576, 23.976fps, ~2500 kbps 10 bit
Аудио: AC3, 48000Hz, stereo, 192 kbps
Аудио (ENG): AC3, 48000Hz, stereo, 192 kbps

Отличия от предыдущих раздач

http://pornolab.net/forum/viewtopic.php?t=1003450 - 576p

Дополнительная информация

Субтитры: английские (3), итальянские, французские, испанские, португальские (бразильские), польские

Скриншоты

MediaInfo

General
Unique ID : 196197549231529300033974053760841117577 (0x939A46049F7335E796BFF611D7756F89)
Complete name : D:\[Kitsune] Nageki no Kenkou Yuuryouji - 01.mkv
Format : Matroska
Format version : Version 4 / Version 2
File size : 586 MiB
Duration : 26 min 59 s
Overall bit rate : 3 036 kb/s
Encoded date : UTC 2018-11-18 23:16:44
Writing application : mkvmerge v8.1.0 ('Psychedelic Postcard') 32bit
Writing library : libebml v1.3.1 + libmatroska v1.4.2
Attachments : 4871719864.ttf / Big Fat Marker.ttf / BigSky.ttf / BRUSH-HYOUKA.TTF / Comic Sans MS.ttf / Mixage_Bold_Italic_BT.ttf / RH Sans.ttf / tahoma.ttf / tahomabd.ttf
Video
ID : 1
Format : AVC
Format/Info : Advanced Video Codec
Format profile : High 10@L3.1
Format settings, CABAC : Yes
Format settings, RefFrames : 6 frames
Codec ID : V_MPEG4/ISO/AVC
Duration : 26 min 59 s
Bit rate : 2 828 kb/s
Width : 768 pixels
Height : 576 pixels
Display aspect ratio : 4:3
Frame rate mode : Constant
Frame rate : 23.976 (24000/1001) FPS
Original frame rate : 23.976 (23976/1000) FPS
Color space : YUV
Chroma subsampling : 4:2:0
Bit depth : 10 bits
Scan type : Progressive
Bits/(Pixel*Frame) : 0.267
Stream size : 546 MiB (93%)
Writing library : x264 core 148 r2692kMod 64f4e24
Encoding settings : cabac=1 / ref=6 / deblock=1:1:1 / analyse=0x3:0x133 / me=tesa / subme=11 / psy=1 / fade_compensate=0.00 / psy_rd=0.40:0.10 / mixed_ref=1 / me_range=32 / chroma_me=1 / trellis=2 / 8x8dct=1 / cqm=0 / deadzone=21,11 / fast_pskip=0 / chroma_qp_offset=-3 / threads=12 / lookahead_threads=1 / sliced_threads=0 / nr=0 / decimate=1 / interlaced=0 / bluray_compat=0 / constrained_intra=0 / fgo=0 / bframes=4 / b_pyramid=2 / b_adapt=2 / b_bias=0 / direct=3 / weightb=1 / open_gop=0 / weightp=2 / keyint=250 / keyint_min=24 / scenecut=60 / intra_refresh=0 / rc_lookahead=60 / rc=crf / mbtree=1 / crf=15.5000 / qcomp=0.60 / qpmin=0 / qpmax=81 / qpstep=4 / ip_ratio=1.40 / aq=1:0.70
Default : Yes
Forced : No
Color range : Limited
Matrix coefficients : BT.601
Audio
ID : 2
Format : AC-3
Format/Info : Audio Coding 3
Format settings, Endianness : Big
Codec ID : A_AC3
Duration : 26 min 59 s
Bit rate mode : Constant
Bit rate : 192 kb/s
Channel(s) : 2 channels
Channel positions : Front: L R
Sampling rate : 48.0 kHz
Frame rate : 31.250 FPS (1536 SPF)
Bit depth : 16 bits
Compression mode : Lossy
Stream size : 37.1 MiB (6%)
Title : japanese
Language : Japanese
Service kind : Complete Main
Default : Yes
Forced : No
Text #1
ID : 3
Format : ASS
Codec ID : S_TEXT/ASS
Codec ID/Info : Advanced Sub Station Alpha
Duration : 24 min 19 s
Bit rate : 166 b/s
Count of elements : 423
Compression mode : Lossless
Stream size : 29.6 KiB (0%)
Title : italiano
Language : Italian
Default : Yes
Forced : No
Text #2
ID : 4
Format : ASS
Codec ID : S_TEXT/ASS
Codec ID/Info : Advanced Sub Station Alpha
Duration : 24 min 18 s
Bit rate : 157 b/s
Count of elements : 411
Compression mode : Lossless
Stream size : 28.1 KiB (0%)
Title : english
Language : English
Default : No
Forced : No
Text #3
ID : 5
Format : ASS
Codec ID : S_TEXT/ASS
Codec ID/Info : Advanced Sub Station Alpha
Duration : 24 min 19 s
Bit rate : 180 b/s
Count of elements : 429
Compression mode : Lossless
Stream size : 32.1 KiB (0%)
Title : français
Language : French
Default : No
Forced : No
Text #4
ID : 6
Format : ASS
Codec ID : S_TEXT/ASS
Codec ID/Info : Advanced Sub Station Alpha
Duration : 24 min 19 s
Bit rate : 188 b/s
Count of elements : 432
Compression mode : Lossless
Stream size : 33.6 KiB (0%)
Title : español
Language : Spanish
Default : No
Forced : No
Text #5
ID : 7
Format : ASS
Codec ID : S_TEXT/ASS
Codec ID/Info : Advanced Sub Station Alpha
Duration : 24 min 19 s
Bit rate : 184 b/s
Count of elements : 431
Compression mode : Lossless
Stream size : 32.9 KiB (0%)
Title : português - brasileiro
Language : Portuguese
Default : No
Forced : No
Text #6
ID : 8
Format : ASS
Codec ID : S_TEXT/ASS
Codec ID/Info : Advanced Sub Station Alpha
Duration : 24 min 21 s
Bit rate : 221 b/s
Count of elements : 418
Compression mode : Lossless
Stream size : 39.5 KiB (0%)
Title : русский
Language : Russian
Default : No
Forced : No
Text #7
ID : 9
Format : ASS
Codec ID : S_TEXT/ASS
Codec ID/Info : Advanced Sub Station Alpha
Duration : 24 min 19 s
Bit rate : 151 b/s
Count of elements : 378
Compression mode : Lossless
Stream size : 27.0 KiB (0%)
Title : polski
Language : Polish
Default : No
Forced : No
Text #8
ID : 10
Format : ASS
Codec ID : S_TEXT/ASS
Codec ID/Info : Advanced Sub Station Alpha
Duration : 24 min 34 s
Bit rate : 144 b/s
Count of elements : 389
Compression mode : Lossless
Stream size : 26.0 KiB (0%)
Title : Hen-Time
Language : English
Default : No
Forced : No
Text #9
ID : 11
Format : ASS
Codec ID : S_TEXT/ASS
Codec ID/Info : Advanced Sub Station Alpha
Duration : 24 min 34 s
Bit rate : 145 b/s
Count of elements : 390
Compression mode : Lossless
Stream size : 26.2 KiB (0%)
Title : RickYHorror
Language : English
Default : No
Forced : No

To download the content you need:
1. Download and install torrent client [for Windows] or for mobile system
2. Click on [Download]
Attention.
If the test YOU are NOT a ROBOT - does not work, then You are using an outdated browser.
Install the current browser and click on [Download]
Security: torrent client is allowed by Kaspersky.

[sexgirl.su].t654766.torrent 
Torrent: Registered [ 2019-07-11 07:35 ] · 13897A52F968A222DCFCAA39C49F87047A237187

Download .torrent

Download

18 KB

Status: checked
Completed: 0 times
Size: 1.7 GB
terms.php
[Profile] [PM]
Display posts:    
Reply to topic

Current time is: 07-Dec 17:49

All times are UTC ± 0



You cannot post new topics in this forum
You cannot reply to topics in this forum
You cannot edit your posts in this forum
You cannot delete your posts in this forum
You cannot vote in polls in this forum
You cannot attach files in this forum
You can download files in this forum