Топ Гир / Top Gear / Сезон: 25 / Серии: 1-2 (8) / BBC [2018., Авто-шоу, HDTVRip] MVO (Jaskier) + Original

Reply to topic
DL-List and Torrent activity
Size:  1.47 GB   |    Registered:  1 year 7 months   |    Completed:  0 times

Seeder not seen: Never

 
   
 
 
Author Message

star21 ®

Gender: Female

Longevity: 3 years 11 months

Posts: 262239

Location: Екатеринбург

Post 08-Mar-2018 18:55

[Quote]

Топ Гир | Top Gear Год выпуска: 2018
Страна: Великобритания
Жанр: Автошоу
Продолжительность: ~ 01:02:00Перевод: Профессиональный (многоголосый закадровый) | - JaskierВ ролях: Мэтт ЛеБлан, Крис Харрис, Рори Рид, Стиг и др.Описание: Новый сезон с новыми ведущими после ухода знаменитой троицы. Top Gear (англ. Top Gear) — популярная английская телепередача, посвящённая автомобилям. Первые выпуски передачи появились в 1977 году. Эта передача была просто пересказ журнала, в течение долгого времени формат передачи не менялся. Но в 2002 году, произошел перезапуск цикла, и вместо сухого пересказа, появился современный «Top Gear», с юмором, приколами, и фирменными тестами. Аудитория программ в странах официальной трансляции составляет около 350 миллионов человек. [imdb]http://www.imdb.com/title/tt1628033[/imdb] | Ссылка на предыдущие и альтернативные раздачи |Качество: HDTVRip
Формат: AVI
Видео: XviD, ~ 1400 kbps, 720x400 (16:9), 25 fps
Аудио 1: MP3, 48,0 КГц, 2 ch, 128 kbps - Rus
Аудио 2: MP3, 48,0 КГц, 2 ch, 128 kbps - Eng
Субтитры: отсутствуютАудио реклама: Авто.ру (два раза в начале и конце по 8 сек.).

Релиз

Перевод и озвучка студия Jaskier

MediaInfo

Код:
Общее
Полное имя : D:\Яскъер\Top Gear. Season 25 (HDTVRip l 400p l Jaskier)\Top.Gear.S25E01.HDTVRip.Rus.Eng.Jaskier.avi
Формат : AVI
Формат/Информация : Audio Video Interleave
Размер файла : 751 Мбайт
Продолжительность : 1 ч. 5 м.
Общий поток : 1605 Кбит/сек
Программа кодирования : VirtualDubMod 1.5.10.3 | www.virtualdub-fr.org || (build 2550/release)
Библиотека кодирования : VirtualDubMod build 2550/releaseВидео
Идентификатор : 0
Формат : MPEG-4 Visual
Профиль формата : Advanced Simple@L5
Настройки формата : BVOP1
Параметр BVOP формата : 1
Параметр QPel формата : Нет
Параметр GMC формата : Без точки перехода
Параметр матрицы формата : Default (MPEG)
Идентификатор кодека : XVID
Идентификатор кодека/Подсказка : XviD
Продолжительность : 1 ч. 5 м.
Битрейт : 1334 Кбит/сек
Ширина : 720 пикселей
Высота : 400 пикселей
Соотношение сторон : 16:9
Частота кадров : 25,000 кадров/сек
Цветовое пространство : YUV
Субдискретизация насыщенности : 4:2:0
Битовая глубина : 8 бит
Тип развёртки : Прогрессивная
Метод сжатия : С потерями
Бит/(Пиксели*Кадры) : 0.185
Размер потока : 624 Мбайт (83%)
Библиотека кодирования : XviD 73Аудио #1
Идентификатор : 1
Формат : MPEG Audio
Версия формата : Version 1
Профиль формата : Layer 3
Настройки формата : Joint stereo / MS Stereo
Идентификатор кодека : 55
Идентификатор кодека/Подсказка : MP3
Продолжительность : 1 ч. 5 м.
Вид битрейта : Постоянный
Битрейт : 128 Кбит/сек
Каналы : 2 канала
Частота : 48,0 КГц
Метод сжатия : С потерями
Размер потока : 59,9 Мбайт (8%)
Выравнивание : Соединение по промежуткам
Продолжительность промежутка : 40 мс. (1,00 видеокадр)
Время предзагрузки промежутка : 504 мс.Аудио #2
Идентификатор : 2
Формат : MPEG Audio
Версия формата : Version 1
Профиль формата : Layer 3
Настройки формата : Joint stereo / MS Stereo
Идентификатор кодека : 55
Идентификатор кодека/Подсказка : MP3
Продолжительность : 1 ч. 5 м.
Вид битрейта : Постоянный
Битрейт : 128 Кбит/сек
Каналы : 2 канала
Частота : 48,0 КГц
Метод сжатия : С потерями
Размер потока : 59,9 Мбайт (8%)
Выравнивание : Соединение по промежуткам
Продолжительность промежутка : 40 мс. (1,00 видеокадр)
Время предзагрузки промежутка : 504 мс.

Скриншоты

Раздача ведется путем добавления новых серий

Когда раздача ведётся путём добавления новых серий, при каждом добавлении создётся новый торрент. Чтобы начать докачку новой серии, пользователям необходимо сделать следующее:
(1) остановить скачивание,
(2) удалить старый торрент у себя из клиента (старые серии удалять не надо),
(3) скачать новый торрент и запустить его у себя в клиенте вместо старого, при этом указать клиенту путь в старую папку, куда и должно происходить скачивание новых серий.
Ваш клиент при этом должен произвести хеширование (проверку) старой папки (если не производит сам - помогите ему сделать это), и будет докачивать только те серии, которых у вас ещё нет. Старые серии при этом не удаляются, а продолжают раздаваться!
Eсли вы уже удалили старые серии, то предотвратить повторную закачку старых серий можно, отжав галочку в соответсвующих местах при запуске нового торрента. По возможности, желательно не удалять старые серии как можно дольше, чтобы релизёр не столько продолжал раздавать старые серии, а смог сконцентрироваться на новых.

To download the content you need:
1. Download and install torrent client [for Windows] or for mobile system
2. Click on [Download]
Attention.
If the test YOU are NOT a ROBOT - does not work, then You are using an outdated browser.
Install the current browser and click on [Download]
Security: torrent client is allowed by Kaspersky.

[sexgirl.su].t510587.torrent 
Torrent: Registered [ 2018-03-08 18:55 ] · 2321C76974D06B4AE9FFE0FB1E51508013477256

Download .torrent

Download

15 KB

Status: checked
Completed: 0 times
Size: 1.47 GB
terms.php
[Profile] [PM]
Display posts:    
Reply to topic

Current time is: 18-Oct 19:16

All times are UTC ± 0



You cannot post new topics in this forum
You cannot reply to topics in this forum
You cannot edit your posts in this forum
You cannot delete your posts in this forum
You cannot vote in polls in this forum
You cannot attach files in this forum
You can download files in this forum