Евгений Грин - Эзотерика для начинающих [2015, Эзотерика, экстрасенсорика, WEBRip, rus]

Reply to topic
DL-List and Torrent activity
Size:  1.29 GB   |    Registered:  3 years 1 month   |    Completed:  0 times

Seeder not seen: 8 months 21 day

 
   
 
 
Author Message

star21 ®

Gender: Female

Longevity: 4 years 11 months

Posts: 262233

Location: Екатеринбург

Post 14-Sep-2017 22:21

[Quote]

Евгений Грин - Эзотерика для начинающих Страна: Россия
Год выпуска: 2015
Тематика: Эзотерика, экстрасенсорика
Продолжительность: 01:25:48
Описание: Данный практический тренинг проводился в Москве в августе 2015 года.
Что было в тренинге "Эзотерика для начинающих":
1) Энергетическое строение полей человека;
2) Техника: Как измерить размеры биополя человека;
3) Развитие экстрасенсорных ощущений;
4) Сканирование энергетических полей: паразита, мертвого человека, демона;
5) Техника: Как увидеть эфирное поле человека;
6) Что происходит при смерти человека, как продлить жизнь человека с помощью энергетики;
7) Техника: Как убрать головную боль;
8) Техника: Энергетическое возбуждение на расстоянии.
В целом очень практический тренинг, полно рабочих техник для начинающих в эзотерике.Качество видео: WEBRip
Формат видео: MP4
Видео: Advanced Video Codec, 1280x720, 1988 Кбит/сек, 25,000 кадров/сек
Аудио: Advanced Audio Codec, 48,0 КГц, 157 Кбит/сек, 2 канала

Отчет Mediainfo

Общее
Формат : MPEG-4
Идентификатор кодека : M4V
Размер файла : 1,29 Гбайт
Продолжительность : 1 ч. 25 м.
Режим общего битрейта : Переменный
Общий поток : 2148 Кбит/сек
Дата кодирования : UTC 2015-09-01 20:36:02
Дата пометки : UTC 2015-09-01 20:40:09
©TIM : 00:00:00:00
©TSC : 25
©TSZ : 1Видео
Идентификатор : 1
Формат : AVC
Формат/Информация : Advanced Video Codec
Профиль формата : Baseline@L3.1
Параметр CABAC формата : Нет
Параметр ReFrames формата : 2 кадра
Идентификатор кодека : avc1
Идентификатор кодека/Информация : Advanced Video Coding
Продолжительность : 1 ч. 25 м.
Вид битрейта : Переменный
Битрейт : 1988 Кбит/сек
Ширина : 1280 пикселей
Высота : 720 пикселей
Соотношение сторон : 16:9
Режим частоты кадров : Постоянный
Частота кадров : 25,000 кадров/сек
Стандарт вещания : PAL
Цветовое пространство : YUV
Субдискретизация насыщенности : 4:2:0
Битовая глубина : 8 бит
Тип развёртки : Прогрессивная
Бит/(Пиксели*Кадры) : 0.086
Размер потока : 1,19 Гбайт (93%)
Язык : English
Дата кодирования : UTC 2015-09-01 20:36:02
Дата пометки : UTC 2015-09-01 20:36:02
Основные цвета : BT.709
Характеристики трансфера : BT.709
Коэффициенты матрицы : BT.709Аудио
Идентификатор : 2
Формат : AAC
Формат/Информация : Advanced Audio Codec
Профиль формата : LC
Идентификатор кодека : 40
Продолжительность : 1 ч. 25 м.
Продолжительность оригинала : 1 ч. 25 м.
Вид битрейта : Переменный
Битрейт : 157 Кбит/сек
Максимальный битрейт : 246 Кбит/сек
Каналы : 2 канала
Расположение каналов : Front: L R
Частота : 48,0 КГц
Метод сжатия : С потерями
Размер потока : 96,6 Мбайт (7%)
Размер потока оригинала : 96,6 Мбайт (7%)
Язык : English
Дата кодирования : UTC 2015-09-01 20:36:02
Дата пометки : UTC 2015-09-01 20:36:02

Скриншоты

To download the content you need:
1. Download and install torrent client [for Windows] or for mobile system
2. Click on [Download]
Attention.
If the test YOU are NOT a ROBOT - does not work, then You are using an outdated browser.
Install the current browser and click on [Download]

Do not work with Yandex browser. Uploading files to them is erroneous.
Security: torrent client is allowed by Kaspersky.

[sexgirl.su].t380962.torrent 
Torrent: Registered [ 2017-09-14 22:20 ] · E6310B3327FBA5CD461E9E5B43E6DC2C10B4064F

Download .torrent

Download

13 KB

Status: checked
Completed: 0 times
Size: 1.29 GB
terms.php
[Profile] [PM]
Display posts:    
Reply to topic

Current time is: 29-Oct 22:14

All times are UTC ± 0



You cannot post new topics in this forum
You cannot reply to topics in this forum
You cannot edit your posts in this forum
You cannot delete your posts in this forum
You cannot vote in polls in this forum
You cannot attach files in this forum
You can download files in this forum