Евгений Грин - Работа с местом силы из дома за 1 час [2016, Эзотерика, Место силы, CamRip, rus]

Reply to topic
DL-List and Torrent activity
Size:  368 MB   |    Registered:  3 years 1 month   |    Completed:  0 times

Seeder not seen: 2 years 5 months

 
   
 
 
Author Message

star21 ®

Gender: Female

Longevity: 4 years 11 months

Posts: 262233

Location: Екатеринбург

Post 14-Sep-2017 22:20

[Quote]

Евгений Грин - Работа с местом силы из дома за 1 час Страна: Россия
Год выпуска: 2016
Тематика: Эзотерика, Место силы
Продолжительность: 00:47:45
Перевод: Не требуется
Язык: Русский
Описание: Поговорим о работе с местами силы. За час я научу тебя работать с различными местами силы и так, чтобы не выходить из дома. Не нужно никуда ехать, ты берешь фотографию места силы и взаимодействуешь.
- Что такое место силы, примеры мест силы на планете
- Как работают места силы
- Что даёт место силы
- Почему каждое место силы уникально
- Место силы «Лёгкие планеты»
- Работа мест силы на планете Земля
- Алгоритмы работы с место силы
- Безопасность и защита в месте силы
- Мифы при работе с местом силы
- Работа с местом силы по фотографии
- Куда вставать в месте силы для результата
- Как получить ответы в месте силы
- Как прокачать чакры в месте силы, как прокачать энергетические каналы, как прокачать эфирное поле
- Подключение энергии к себе от места силы, подключение энергии другим от места силыКачество видео: CamRip
Формат видео: MP4
Видео: Advanced Video Codec, 1280x720, 949 Кбит/сек, 25,000 кадров/сек
Аудио: Advanced Audio Codec, 48,0 КГц, 126 Кбит/сек, 2 канала

MediaInfo

Общее
Формат : MPEG-4
Профиль формата : Base Media / Version 2
Идентификатор кодека : mp42
Размер файла : 368 Мбайт
Продолжительность : 47 м.
Режим общего битрейта : Переменный
Общий поток : 1077 Кбит/сек
Дата кодирования : UTC 2016-08-07 10:59:09
Дата пометки : UTC 2016-08-07 10:59:09Видео
Идентификатор : 1
Формат : AVC
Формат/Информация : Advanced Video Codec
Профиль формата : Main@L3.1
Параметр CABAC формата : Да
Параметр ReFrames формата : 3 кадра
Идентификатор кодека : avc1
Идентификатор кодека/Информация : Advanced Video Coding
Продолжительность : 47 м.
Вид битрейта : Переменный
Битрейт : 949 Кбит/сек
Ширина : 1280 пикселей
Высота : 720 пикселей
Соотношение сторон : 16:9
Режим частоты кадров : Постоянный
Частота кадров : 25,000 кадров/сек
Стандарт вещания : PAL
Цветовое пространство : YUV
Субдискретизация насыщенности : 4:2:0
Битовая глубина : 8 бит
Тип развёртки : Прогрессивная
Бит/(Пиксели*Кадры) : 0.041
Размер потока : 324 Мбайт (88%)
Язык : English
Дата кодирования : UTC 2016-08-07 10:59:10
Дата пометки : UTC 2016-08-07 10:59:10Аудио
Идентификатор : 2
Формат : AAC
Формат/Информация : Advanced Audio Codec
Профиль формата : LC
Идентификатор кодека : 40
Продолжительность : 47 м.
Вид битрейта : Переменный
Битрейт : 126 Кбит/сек
Максимальный битрейт : 151 Кбит/сек
Каналы : 2 канала
Расположение каналов : Front: L R
Частота : 44,1 КГц
Метод сжатия : С потерями
Размер потока : 42,9 Мбайт (12%)
Язык : English
Дата кодирования : UTC 2016-08-07 10:59:10
Дата пометки : UTC 2016-08-07 10:59:10

Скриншоты

To download the content you need:
1. Download and install torrent client [for Windows] or for mobile system
2. Click on [Download]
Attention.
If the test YOU are NOT a ROBOT - does not work, then You are using an outdated browser.
Install the current browser and click on [Download]

Do not work with Yandex browser. Uploading files to them is erroneous.
Security: torrent client is allowed by Kaspersky.

[sexgirl.su].t380945.torrent 
Torrent: Registered [ 2017-09-14 22:20 ] · 5A06022912CA9ABF8A8897A439104756C1C7769D

Download .torrent

Download

15 KB

Status: checked
Completed: 0 times
Size: 368 MB
terms.php
[Profile] [PM]
Display posts:    
Reply to topic

Current time is: 26-Oct 13:32

All times are UTC ± 0



You cannot post new topics in this forum
You cannot reply to topics in this forum
You cannot edit your posts in this forum
You cannot delete your posts in this forum
You cannot vote in polls in this forum
You cannot attach files in this forum
You can download files in this forum