[DVDA][QU] Sly & the Family Stone\'s - Greatest Hits - 1970 (Funk, Soul)

Reply to topic
DL-List and Torrent activity
Size:  1.91 GB   |    Registered:  3 years 6 months   |    Completed:  0 times

Seeder not seen: Never

 
   
 
 
Author Message

star21 ®

Gender: Female

Longevity: 5 years 3 months

Posts: 262231

Location: Екатеринбург

Post 18-Aug-2017 13:25

[Quote]

Sly & the Family Stone's / Greatest Hits Формат записи/Источник записи: [DVDA][QU]
Наличие водяных знаков: Нет
Год издания/переиздания диска: 1970
Жанр: Funk, Soul
Издатель(лейбл): Epic
Продолжительность: 0:40:45
Наличие сканов в содержимом раздачи: ДаТреклист:
A1 I Want To Take You Higher
A2 Everybody Is A Star
A3 Stand!
A4 Life
A5 Fun
A6 You Can Make It If You Try
B1 Dance To The Music
B2 Everyday People
B3 Hot Fun In The Summertime
B4 M'Lady
B5 Sing A Simple Song
B6 Thank You (Falettinme Be Mice Elf Agin)Контейнер: ISO (*.iso)
Тип рипа: imageРазрядность: 24/96
Формат: MLP(PPCM)
Количество каналов: 4.0Другие дорожки звука: 24/96 4.0 lossless MLP (DVD-Audio).
16/48 4.0 DTS @ 1536kbps (DVD-Video) for compatibility with standard DVD players.

Лог проверки качества

foobar2000 1.3.4 / Dynamic Range Meter 1.1.1log date: 2014-11-21 19:16:39--------------------------------------------------------------------------------Analyzed: ? / SLYANDTH--------------------------------------------------------------------------------DR         Peak         RMS     Duration Track--------------------------------------------------------------------------------DR14      -1.69 dB   -19.91 dB      5:24 01-Lf-Rf 24/96000 + Ls-Rs 24/96000DR13      -4.02 dB   -20.32 dB      3:09 02-Lf-Rf 24/96000 + Ls-Rs 24/96000DR13      -3.77 dB   -20.96 dB      3:14 03-Lf-Rf 24/96000 + Ls-Rs 24/96000DR14      -2.26 dB   -20.09 dB      3:03 04-Lf-Rf 24/96000 + Ls-Rs 24/96000DR14      -4.01 dB   -21.46 dB      2:27 05-Lf-Rf 24/96000 + Ls-Rs 24/96000DR15      -3.05 dB   -24.37 dB      3:45 06-Lf-Rf 24/96000 + Ls-Rs 24/96000DR13      -1.81 dB   -20.32 dB      3:00 07-Lf-Rf 24/96000 + Ls-Rs 24/96000DR13      -3.60 dB   -20.09 dB      2:29 08-Lf-Rf 24/96000 + Ls-Rs 24/96000DR14      -3.41 dB   -21.91 dB      2:43 09-Lf-Rf 24/96000 + Ls-Rs 24/96000DR15      -2.86 dB   -21.86 dB      2:49 10-Lf-Rf 24/96000 + Ls-Rs 24/96000DR14      -2.66 dB   -21.22 dB      3:53 11-Lf-Rf 24/96000 + Ls-Rs 24/96000DR17      -0.29 dB   -22.46 dB      4:51 12-Lf-Rf 24/96000 + Ls-Rs 24/96000--------------------------------------------------------------------------------Number of tracks:  12Official DR value: DR14Samplerate:        96000 HzChannels:          4Bits per sample:   24Bitrate:           9216 kbpsCodec:             MLP
Доп. информация: https://www.discogs.com/Sly-The-Family-Stone-Greatest-Hits/release/1853500
Источник (релизер): Demonoid

To download the content you need:
1. Download and install torrent client [for Windows] or for mobile system
2. Click on [Download]
Attention.
If the test YOU are NOT a ROBOT - does not work, then You are using an outdated browser.
Install the current browser and click on [Download]

Do not work with Yandex browser. Uploading files to them is erroneous.
Security: torrent client is allowed by Kaspersky.

[sexgirl.su].t365159.torrent 
Torrent: Registered [ 2017-08-18 13:25 ] · AA810F44B10C70172200305F52738D99475D1550

Download .torrent

Download

20 KB

Status: checked
Completed: 0 times
Size: 1.91 GB
terms.php
[Profile] [PM]
Display posts:    
Reply to topic

Current time is: 03-Mar 11:04

All times are UTC ± 0



You cannot post new topics in this forum
You cannot reply to topics in this forum
You cannot edit your posts in this forum
You cannot delete your posts in this forum
You cannot vote in polls in this forum
You cannot attach files in this forum
You can download files in this forum