Джереми Кларксон - Заряженные / Jeremy Clarkson - Powered Up [2011, Великобритания, Развлекательное авто-шоу, BDRip 720p]

Reply to topic
DL-List and Torrent activity
Size:  3.45 GB   |    Registered:  2 years 7 months   |    Completed:  0 times

Seeder not seen: Never

 
   
 
 
Author Message

star21 ®

Gender: Female

Longevity: 3 years 11 months

Posts: 262239

Location: Екатеринбург

Post 12-Mar-2017 08:22

[Quote]

Джереми Кларксон - Заряженные / Jeremy Clarkson - Powered Up
Страна: Великобритания
Режиссер: Брайан Клейн
Жанр: Развлекательное авто-шоу
Дата выпуска: 2011
Продолжительность: 1:06:32
Перевод: Отсутствует
Субтитры: Появились русские субтитры http://notabenoid.com/book/24902/
Описание: Ведущий Топ Гир опробует во Франции: McLaren MP4-12C, Lamborghini Gallardo Spyder, Jaguar E-Type и Bentley. Новый сезон Top Gear еще снимается, поэтому Джереми отправился на гоночный трек Paul Ricard, чтобы снять небольшой бонус от себя.
Он заявляет, что в фильме мы увидим много знакомых лиц, так как без автомобильных звёзд не обошлось. Например, гонщик формулы-1 Карун Чандок великолепно провёл время на семиступенчатом 911 GT3.
Скажем, что Кларксона не бывает много, его тест-драйвы хочется смотреть постоянно. А когда заканчиваются автомобили, хочется, чтобы производители срочно выпустили новые модели, либо Кларксон сам нашел что-то экзотичное и интересное.

Описание от Кларксона

For my all new DVD, I’m in the South of France.
My base? - The high-tech testing ground for Formula One - Circuit Paul Ricard. My mission? - To find find my favourite car of the year.
My candidates? - For starters there's a pair of Ferraris... the V12, 6.3 litre FF and the 458.
There’s the UK challenger to the 458... McLaren’s MP4-12C. Joining the action are the latest gizmo-laden Nissan GTR, Porsche's GT2 RS, the 570-horsepower Lamborghini Performante and the built-for-fun BMW 1M.
Helping me are tame racing driver The Stig and the not-so-tame Formula One new boy, Karun Chandhok. I look into the future - in the shape of the hybrid-engined Mugen Honda CR-Z... And there are blasts from the past as well. The beautiful Eagle Speedster - a modern twist on the iconic, timeless E-Type...with its 4.7 litre engine - and an eye-watering £500,000 price tag. And there's the all new Jensen Interceptor R with its 6.2 litre Corvette motor.
Plus, from the minds of boffins at a German museum, there’s the mighty Brutus...a vintage car fitted with a flame-spitting BMW airplane engine. Also there’s enough in-your-face power to flambé your eyebrows from the single-seater, super-lightweight B.A.C. Mono - capable of 0-60 in 2.8 seconds.
Circuit Paul Ricard tests all these cars and more to the limit...
But it's not all about performance on the track. I take to the open road to see if small can be beautiful. I squeeze my sizeable know-how into the bonkers Citroen DS3 Racing, the pocket rocket Abarth 500C and the dinky Renault Clio Cup.
How to sum up all this action...Well, I sit in a chair, a man has a mishap....And a brown car goes round a corner....
What more could you want?...
Качество видео: BDRip
Формат видео: MKV
Видео: H.264 5758 Kbps, 1280x720, 25.000 fps, 0.250 Bits/(Pixel*frame)
Аудио: DTS 6 ch, 1510 Kbps, 48.0 KHz, 16 bits

MediaInfo

Format                                   : Matroska
Format version                           : Version 2
File size                                : 3.45 GiB
Duration                                 : 1h 6mn
Overall bit rate                         : 7 416 Kbps
Movie name                               : Jeremy Clarkson - Powered Up
Encoded date                             : UTC 2011-11-18 00:49:53
Writing application                      : mkvmerge v4.9.1 ('Ich will') built on Sep 30 2011 22:45:24
Writing library                          : libebml v1.2.1 + libmatroska v1.1.1
Video
ID                                       : 1
Format                                   : AVC
Format/Info                              : Advanced Video Codec
Format profile                           : High@L4.1
Format settings, CABAC                   : Yes
Format settings, ReFrames                : 5 frames
Muxing mode                              : Header stripping
Codec ID                                 : V_MPEG4/ISO/AVC
Duration                                 : 1h 6mn
Bit rate                                 : 5 758 Kbps
Width                                    : 1 280 pixels
Height                                   : 720 pixels
Display aspect ratio                     : 16:9
Frame rate mode                          : Variable
Frame rate                               : 25.000 fps
Color space                              : YUV
Chroma subsampling                       : 4:2:0
Bit depth                                : 8 bits
Scan type                                : Progressive
Bits/(Pixel*Frame)                       : 0.250
Stream size                              : 2.68 GiB (78%)
Writing library                          : x264 core 116 r2042 178455c
Encoding settings                        : cabac=1 / ref=5 / deblock=1:0:0 / analyse=0x3:0x113 / me=umh / subme=8 / psy=1 / psy_rd=1.00:0.00 / mixed_ref=1 / me_range=16 / chroma_me=1 / trellis=1 / 8x8dct=1 / cqm=0 / deadzone=21,11 / fast_pskip=1 / chroma_qp_offset=-2 / threads=4 / sliced_threads=0 / nr=0 / decimate=1 / interlaced=0 / bluray_compat=0 / constrained_intra=0 / bframes=3 / b_pyramid=2 / b_adapt=2 / b_bias=0 / direct=3 / weightb=1 / open_gop=0 / weightp=2 / keyint=250 / keyint_min=25 / scenecut=40 / intra_refresh=0 / rc_lookahead=50 / rc=crf / mbtree=1 / crf=20.0 / qcomp=0.60 / qpmin=0 / qpmax=69 / qpstep=4 / ip_ratio=1.41 / aq=1:1.00
Language                                 : English
Audio
ID                                       : 2
Format                                   : DTS
Format/Info                              : Digital Theater Systems
Muxing mode                              : Header stripping
Codec ID                                 : A_DTS
Duration                                 : 1h 6mn
Bit rate mode                            : Constant
Bit rate                                 : 1 510 Kbps
Channel(s)                               : 6 channels
Channel positions                        : Front: L C R, Side: L R, LFE
Sampling rate                            : 48.0 KHz
Bit depth                                : 16 bits
Compression mode                         : Lossy
Stream size                              : 718 MiB (20%)
Language                                 : English
Menu
00:00:00.000                             : en:Chapter 00
00:02:10.000                             : en:Chapter 01
00:04:54.600                             : en:Chapter 02
00:08:48.160                             : en:Chapter 03
00:10:08.200                             : en:Chapter 04
00:19:14.200                             : en:Chapter 05
00:26:10.600                             : en:Chapter 06
00:31:30.000                             : en:Chapter 07
00:38:59.080                             : en:Chapter 08
00:42:52.640                             : en:Chapter 09
00:45:16.760                             : en:Chapter 10
00:54:14.280                             : en:Chapter 11
01:00:55.560                             : en:Chapter 12
01:03:09.240                             : en:Chapter 13
01:05:28.640                             : en:Chapter 14

Скриншоты

To download the content you need:
1. Download and install torrent client [for Windows] or for mobile system
2. Click on [Download]
Attention.
If the test YOU are NOT a ROBOT - does not work, then You are using an outdated browser.
Install the current browser and click on [Download]
Security: torrent client is allowed by Kaspersky.

[sexgirl.su].t317003.torrent 
Torrent: Registered [ 2017-03-12 07:54 ] · 0BDFD267D39D47B5FFD013C8EF22B050952F3490

Download .torrent

Download

35 KB

Status: checked
Completed: 0 times
Size: 3.45 GB
terms.php
[Profile] [PM]
Display posts:    
Reply to topic

Current time is: 18-Oct 19:42

All times are UTC ± 0



You cannot post new topics in this forum
You cannot reply to topics in this forum
You cannot edit your posts in this forum
You cannot delete your posts in this forum
You cannot vote in polls in this forum
You cannot attach files in this forum
You can download files in this forum