Топ Гир в Кино / Top Gear at The Movies [2011, DVDRip, rus] (Jetvis Studio)

Reply to topic
DL-List and Torrent activity
Size:  802 MB   |    Registered:  2 years 7 months   |    Completed:  0 times

Seeder not seen: Never

 
   
 
 
Author Message

star21 ®

Gender: Female

Longevity: 3 years 11 months

Posts: 262239

Location: Екатеринбург

Post 12-Mar-2017 08:22

[Quote]

Топ Гир в Кино / Top Gear at The Movies
Страна: Великобритания
Жанр: Автошоу
Продолжительность: 01:13:20
Год выпуска: 2011
Перевод: Двухголосый закадровый - Jetvis Studio
Русские субтитры: нет

Перевод: Андрей "Fahrenheit" Шульдешов и doc_ravik.
Озвучка: Jetvis Studio
Текст читали: Иван "Jet" Назаров и Михаил "Smartt" Вельмискин.
Описание: 14 ноября поклонникам знаменитого авто-шоу Top Gear будет чему порадоваться – на DVD выходит фильм "Top Gear в Кино" (Top Gear at the Movies), в котором Ричард Хаммонд и Джеймс Мэй гоняются на спорткарах и домах на колесах, участвуют в перестрелках и взрывают машины. А заодно рассказывают о том, насколько важна роль автомобиля в современном кинематографе.
Cars! Film! Cars on film! Film involving cars! You get the idea.
Gasp as we find the perfect drift car for a gritty, Bourne Identity-style chase! Cheer as we stage a race for all those unsung heroes of the movie industry! Whoop as we find the car that makes the perfect dramatic exhaust note to dub onto an action sequence! Make some other sort of noise we haven’t thought of yet as we re-attempt the classic Man With The Golden Gun barrel roll, having frankly made a total hash of it when we first tried it on telly! All this plus a vast fleet of sexy supercars and a man with a jet pack racing a Skoda.
Top Gear At The Movies. It’s better than an actual movie. Probably. Actually, it depends on which movie we’re talking about. Truth is, you’d be better judging this on a case-by-case basis. Why not write to us with the name of a film and we’ll tell you whether this Blu-ray is better or not. Actually, on second thoughts, don’t.

Наши релизы

Наши релизы

Ссылка на альтернативные раздачи

http://rutracker.org/forum/tracker.php?f%5B%5D=921&f%5B%5D=&nm=Top+Gear+Movies
Качество: DVDRip
Формат: AVI
Видео: Xvid 624x352 23.976fps 1209kbps
Аудио Rus: MPEG Audio Layer 3 48000Hz stereo 192Kbps
Аудио Eng: MPEG Audio Layer 3 48000Hz stereo 128Kbps

Подробные технические данные

C:\Торрент\Top.Gear.At.The.Movies.2011.Jetvis.Studio.avi   General      Complete name : C:\Торрент\Top.Gear.At.The.Movies.2011.Jetvis.Studio.avi      Format : AVI      Format/Info : Audio Video Interleave      File size : 802 MiB      Duration : 1h 13mn      Overall bit rate : 1 529 Kbps      Writing application : VirtualDubMod 1.5.10.2 (build 2542/release)      Writing library : VirtualDubMod build 2542/release   Video #0      ID : 0      Format : MPEG-4 Visual      Format profile : AdvancedSimple@L5      Format settings, BVOP : Yes      Format settings, QPel : No      Format settings, GMC : No warppoints      Format settings, Matrix : Custom      Codec ID : XVID      Codec ID/Hint : XviD      Duration : 1h 13mn      Bit rate : 1 209 Kbps      Width : 624 pixels      Height : 352 pixels      Display aspect ratio : 16:9      Frame rate : 23.976 fps      Resolution : 24 bits      Colorimetry : 4:2:0      Scan type : Progressive      Bits/(Pixel*Frame) : 0.230      Stream size : 634 MiB (79%)      Writing library : XviD 1.2.1 (UTC 2008-12-04)   Audio #1      ID : 1      Format : MPEG Audio      Format version : Version 1      Format profile : Layer 3      Codec ID : 55      Codec ID/Hint : MP3      Duration : 1h 13mn      Bit rate mode : Constant      Bit rate : 192 Kbps      Channel(s) : 2 channels      Sampling rate : 48.0 KHz      Resolution : 16 bits      Stream size : 101 MiB (13%)      Alignment : Aligned on interleaves      Interleave, duration : 42 ms (1.00 video frame)      Interleave, preload duration : 504 ms      Language : English   Audio #2      ID : 2      Format : MPEG Audio      Format version : Version 1      Format profile : Layer 3      Codec ID : 55      Codec ID/Hint : MP3      Duration : 1h 13mn      Bit rate mode : Variable      Bit rate : 111 Kbps      Nominal bit rate : 128 Kbps      Channel(s) : 2 channels      Sampling rate : 48.0 KHz      Resolution : 16 bits      Stream size : 58.5 MiB (7%)      Alignment : Aligned on interleaves      Interleave, duration : 24 ms (0.58 video frame)      Interleave, preload duration : 473 ms      Writing library : LAME3.98r      Encoding settings : -m j -V 4 -q 2 -lowpass 17 --abr 128

Скриншоты

To download the content you need:
1. Download and install torrent client [for Windows] or for mobile system
2. Click on [Download]
Attention.
If the test YOU are NOT a ROBOT - does not work, then You are using an outdated browser.
Install the current browser and click on [Download]
Security: torrent client is allowed by Kaspersky.

[sexgirl.su].t317001.torrent 
Torrent: Registered [ 2017-03-12 07:54 ] · 688F78E1E15C5EF9EA035BA619F7C91EEB75A6DB

Download .torrent

Download

16 KB

Status: checked
Completed: 0 times
Size: 802 MB
terms.php
[Profile] [PM]
Display posts:    
Reply to topic

Current time is: 18-Oct 18:29

All times are UTC ± 0



You cannot post new topics in this forum
You cannot reply to topics in this forum
You cannot edit your posts in this forum
You cannot delete your posts in this forum
You cannot vote in polls in this forum
You cannot attach files in this forum
You can download files in this forum