Top Gear/Топ Гир Of The Pops [2007, UK, Развлекательное шоу, SATRip]

Reply to topic
DL-List and Torrent activity
Size:  351 MB   |    Registered:  2 years 7 months   |    Completed:  0 times

Seeder not seen: Never

 
   
 
 
Author Message

star21 ®

Gender: Female

Longevity: 3 years 11 months

Posts: 262239

Location: Екатеринбург

Post 12-Mar-2017 08:22

[Quote]

Top Gear Of The Pops Страна: UK
Жанр: Развлекательное шоу
Дата выпуска: 16.03.2007
Продолжительность: 32:54
Перевод: Отсутствует
Субтитры: нет
Описание: Top Gear of the Pops транслировался как часть благотворительного шоу Дня Красного Носа в 2007 году. В программе смешаны элементы Топ Гира и Top of the Pops, британской музыкальной телепередачи закрытой в 2006 году.
Автор рипа: неизвестен
Качество видео: SATRip
Формат видео: AVI
Видео: Xvid 640x352 25.00fps 1225kbps
Аудио: Dolby AC3 48000Hz stereo 256kbps

MediaInfo

General
Complete name : D:\video\mpeg4\TopGear\Top.Gear.OfThe.Pops.XviD.AC3.avi
Format : AVI
Format/Info : Audio Video Interleave
File size : 351 MiB
Duration : 32mn 54s
Overall bit rate : 1 490 Kbps
Writing application : VirtualDubMod 1.5.10.2 (build 2540/release)
Writing library : VirtualDubMod build 2540/release
Video
ID : 0
Format : MPEG-4 Visual
Format profile : Advanced Simple@L5
Format settings, BVOP : 2
Format settings, QPel : No
Format settings, GMC : No warppoints
Format settings, Matrix : Default (H.263)
Muxing mode : Packed bitstream
Codec ID : XVID
Codec ID/Hint : XviD
Duration : 32mn 54s
Bit rate : 1 225 Kbps
Width : 640 pixels
Height : 352 pixels
Display aspect ratio : 16:9
Frame rate : 25.000 fps
Color space : YUV
Chroma subsampling : 4:2:0
Bit depth : 8 bits
Scan type : Progressive
Compression mode : Lossy
Bits/(Pixel*Frame) : 0.217
Stream size : 288 MiB (82%)
Writing library : XviD 1.2.0SMP (UTC 2006-01-08)
Audio
ID : 1
Format : AC-3
Format/Info : Audio Coding 3
Mode extension : CM (complete main)
Codec ID : 2000
Duration : 32mn 53s
Bit rate mode : Constant
Bit rate : 256 Kbps
Channel(s) : 2 channels
Channel positions : Front: L R
Sampling rate : 48.0 KHz
Bit depth : 16 bits
Compression mode : Lossy
Stream size : 60.2 MiB (17%)
Alignment : Split accross interleaves
Interleave, duration : 40 ms (1.00 video frame)
Interleave, preload duration : 500 ms

Скриншоты

To download the content you need:
1. Download and install torrent client [for Windows] or for mobile system
2. Click on [Download]
Attention.
If the test YOU are NOT a ROBOT - does not work, then You are using an outdated browser.
Install the current browser and click on [Download]
Security: torrent client is allowed by Kaspersky.

[sexgirl.su].t316984.torrent 
Torrent: Registered [ 2017-03-12 07:54 ] · D74AABC2D08526440AF35989FD9047982AE54776

Download .torrent

Download

14 KB

Status: checked
Completed: 0 times
Size: 351 MB
terms.php
[Profile] [PM]
Display posts:    
Reply to topic

Current time is: 18-Oct 19:38

All times are UTC ± 0



You cannot post new topics in this forum
You cannot reply to topics in this forum
You cannot edit your posts in this forum
You cannot delete your posts in this forum
You cannot vote in polls in this forum
You cannot attach files in this forum
You can download files in this forum