[DTSCD][UP] Blank and Jones - Relax Edition 11 - 2018 (Electronic, Downtempo)

Reply to topic
DL-List and Torrent activity
Size:  812 MB   |    Registered:  1 month 24 days   |    Completed:  0 times

Seeder not seen: Never

 
   
 
 
Author Message

star21 ®

Gender: Female

Longevity: 5 years 3 months

Posts: 262231

Location: Екатеринбург

Post 10-Jan-2021 08:00

[Quote]

Blank and Jones - Relax Edition 11 DTS UPMix Формат записи/Источник записи: [DTSCD][UP]
Наличие водяных знаков: Нет
Год издания/переиздания диска: 2018
Жанр: Electronic, Downtempo
Издатель (лейбл): Soundcolours
Продолжительность: 01:19:45
Наличие сканов в содержимом раздачи: Только обложка альбомаТреклист:
01. Blank & Jones - Easin In (Original Mix)
02. Blank & Jones - Feel Like Makin Love (Original Mix)
03. Blank & Jones - South Sea Vagabounds (Original Mix)
04. Blank & Jones - Still The Same (Original Mix)
05. Blank & Jones - Blue Mountains (Original Mix)
06. Blank & Jones - Darlings (Original Mix)
07. Blank & Jones - Takin Off (Original Mix)
08. Blank & Jones - (Youre Gonna Look) Good In Blues (Original Mix)
09. Blank & Jones - Fading (Original Mix)
10. Blank & Jones - (Reach Up For The) Sunrise (Original Mix)
11. Blank & Jones - Beach (Original Mix)
12. Blank & Jones - Our Love (Original Mix)
13. Blank & Jones - Oceano (Original Mix)
14. Blank & Jones - Touch My Body (Original Mix)
15. Blank & Jones - Change My Mind (Original Mix)
16. Blank & Jones - Holding On (Original Mix)
17. Blank & Jones - Meme Si (Original Mix)
18. Blank & Jones - (Youre Gonna Look) Good In Blues (La Version Francaise)Контейнер: WAV(*.wav)
Тип рипа: tracksРазрядность: 16/44,1
Формат: DTS
Количество каналов: 5.1
Битрейт аудио: 1411 kbps

DR-лог

foobar2000 1.1.9 / Dynamic Range Meter 1.1.1log date: 2018-12-15 08:09:11--------------------------------------------------------------------------------Analyzed: ? / ?--------------------------------------------------------------------------------DR         Peak         RMS     Duration Track--------------------------------------------------------------------------------DR12      -0.02 dB   -15.09 dB      5:07 01. Blank & Jones - Easin In (Original Mix) DTSDR11      -0.02 dB   -14.77 dB      3:33 02. Blank & Jones - Feel Like Makin Love (Original Mix) DTSDR12      -0.23 dB   -15.56 dB      5:39 03. Blank & Jones - South Sea Vagabounds (Original Mix) DTSDR12      -0.02 dB   -15.03 dB      4:27 04. Blank & Jones - Still The Same (Original Mix) DTSDR12      -0.14 dB   -15.35 dB      4:31 05. Blank & Jones - Blue Mountains (Original Mix) DTSDR11      -0.55 dB   -14.84 dB      5:21 06. Blank & Jones - Darlings (Original Mix) DTSDR12      -0.15 dB   -14.84 dB      4:56 07. Blank & Jones - Takin Off (Original Mix) DTSDR11      -0.50 dB   -14.68 dB      4:52 08. Blank & Jones - (Youre Gonna Look) Good In Blues (Original Mix) DTSDR11      -0.14 dB   -14.89 dB      5:50 09. Blank & Jones - Fading (Original Mix) DTSDR11      -0.02 dB   -14.92 dB      3:22 10. Blank & Jones - (Reach Up For The) Sunrise (Original Mix) DTSDR11      -0.02 dB   -14.37 dB      5:00 11. Blank & Jones - Beach (Original Mix) DTSDR12      -0.02 dB   -14.41 dB      3:10 12. Blank & Jones - Our Love (Original Mix) DTSDR10      -0.19 dB   -14.52 dB      4:08 13. Blank & Jones - Oceano (Original Mix) DTSDR10      -0.02 dB   -14.46 dB      3:42 14. Blank & Jones - Touch My Body (Original Mix) DTSDR10      -0.02 dB   -14.39 dB      4:04 15. Blank & Jones - Change My Mind (Original Mix) DTSDR11      -0.07 dB   -14.78 dB      4:00 16. Blank & Jones - Holding On (Original Mix) DTSDR11      -0.11 dB   -14.35 dB      3:48 17. Blank & Jones - Meme Si (Original Mix) DTSDR11      -0.02 dB   -14.42 dB      4:15 18. Blank & Jones - (Youre Gonna Look) Good In Blues (La Version Francaise) DTS--------------------------------------------------------------------------------Number of tracks:  18Official DR value: DR11Samplerate:        44100 HzChannels:          6Bitrate:           1411 kbpsCodec:             DTS================================================================================

Скриншот спектра частот

Источник (релизер): WEB-релиз
Доп. информация: DJ S.A.W. DTS Upmix
Метод получения апмикса:
ручное выделение фазо-частотных фрагментов фонограммы с помощью функции CCE Adobe Audition
мультиканальный мастеринг – Аdobe Audition (встроенными эффектами и плагинами Waves, iZotope,
Starplugs и т.п.)

To download the content you need:
1. Download and install torrent client [for Windows] or for mobile system
2. Click on [Download]
Attention.
If the test YOU are NOT a ROBOT - does not work, then You are using an outdated browser.
Install the current browser and click on [Download]

Do not work with Yandex browser. Uploading files to them is erroneous.
Security: torrent client is allowed by Kaspersky.

[sexgirl.su].t716993.torrent 
Torrent: Registered [ 2021-01-10 08:00 ] · 31E9F60A13471788A65C6E72879D015ED74FFAEF

Download .torrent

Download

18 KB

Status: checked
Completed: 0 times
Size: 812 MB
terms.php
[Profile] [PM]
Display posts:    
Reply to topic

Current time is: 03-Mar 12:44

All times are UTC ± 0



You cannot post new topics in this forum
You cannot reply to topics in this forum
You cannot edit your posts in this forum
You cannot delete your posts in this forum
You cannot vote in polls in this forum
You cannot attach files in this forum
You can download files in this forum