[Coursera] Медитация и Наука / The Science of Meditation, Education and Cognitive Shifts (University of Virginia) [2015, Документальный, буддизм, познавательный, WEBRip, RUS Subs]

Reply to topic
DL-List and Torrent activity
Size:  1.34 GB   |    Registered:  3 years 1 month   |    Completed:  0 times

Seeder not seen: Never

 
   
 
 
Author Message

star21 ®

Gender: Female

Longevity: 4 years 11 months

Posts: 262233

Location: Екатеринбург

Post 14-Sep-2017 22:20

[Quote]

Медитация и Наука / The Science of Meditation, Education and Cognitive Shifts Дата/Год выпуска: 02.09.2015
Страна: USA
Жанр: Документальный, буддизм, познавательный
Продолжительность: 05:10:00
Перевод: Субтитры
Перевод с английского: SaGUITARiuS
Русские субтитры: естьФормат субтитров: softsub (SRT)
Оригинальная аудиодорожка: английский
Режиссер: University of VirginiaОписание: Часть курса лекций Tibetan Buddhist Meditation and the Modern World: Lesser Vehicle с сайта Coursera.В первой половине этих лекций нейробиолог доктор Клиффорд Сэрон, PhD, предлагает интенсивный курс о научных исследованиях мозга и сознания, а также знакомит с исследованиями популярных форм медитации, в то же время подчеркивая как перспективы, так и риски лечебной практики медитации, как объекта научного исследования.Во второй половине лекций доктор Сэрон в деталях рассказывает о проекте "Шаматха", в котором он и его команда случайно разделила на две группы 60 участников с большим опытом медитации. Одна группа начала трехмесячную медитативную тренировку (ретрит), в то время, как другая группа образовала контрольную группу (контрольная группа совершала свой трехмесячный ретрит позже). Психологические данные собирались до, в течении и после ретрита. Во время ретритов Алан Уоллес давал участникам инструкции по медитации, чтобы содействовать расслаблению, развить увеличение внимательности и взрастить сострадание.Подробное описание этого исследовательского проекта "Шаматха" - http://insitory.ru/meditaciya-udlinyaet-zhizn.htmlДоп. информация: Научный интерес к медитации в США сохраняется более ста лет. Однако до 1960 года не происходило тщательного научного изучения медитации. В настоящее время эти исследования очень популярны во всем мире, и они используются в различных научных дисциплинах, несмотря на то, что потребовалось несколько десятилетий исследований медитации, чтобы добиться некоторого внимания крупных исследовательских университетов. Научное исследование предполагает использование научного оборудования, экспериментального проектирования и методологии, чтобы изучить как медитация воздействует на человеческое тело и сознание, а также предполагает использование таких научных направлений как рандомизированные контролируемые исследования, чтобы оценить оказывает ли медитация влияние на определенные аспекты в зависимости от конкретного контекста (такие как возможность управления хронической болью у пациентов). Возможно, самые высокопрофильные научные исследования медитации проведены в нейробиологии, которые сфокусированы на использовании таких технологий, как электроэнцефалография (ЭЭГ) и функциональная магнитно-резонансная томография (фМРТ), чтобы понять человеческий мозг.Сэмпл: https://yadi.sk/i/5wC_b8UprSrfcкачество: WEBRip
формат: MP4
Видео: AVC, 640x360 (16:9), 550 Kbps, 29.97fps
Аудио: AAC, 128kbps, 44100Hz, 2 channelsПримечание: Конструктивные замечания по переводу приветствуются, особенно в области перевода нейробиологических терминов.

Список выпусков/серий

01. Be Holding The Space of the Brain:
- How the Brain Constructs our Experience of the World;
- Neurons;
- The Brain as an Interconnected System;
- The Brain as a Representational System;
- Neuroplasticity.
02. The Science of Mindfulness against the Background of the Scientific Study of Meditation:
- The Contemporary Context of the Science of Meditation;
- What do People do When they Meditate?
- Mapping the Dimensions of Meditation.
03. The Science of Concentration, Relaxation, Focus and Shamatha:
- The Science of Meditation: A Personal Account;
- The Shamatha Project.
04. Measuring Meditation:
- Measuring Compassion and Meditation, Part I;
- Measuring Compassion and Meditation, Part II - How to Measure Data when Dealing with Meditation;
- Measuring Compassion and Meditation, Part III - Meditation and EEG.
05. The Science of Emotion and Social-Emotional Learning:
- The Science of Emotion;
- Methodology and the Science of Meditation.

MediaInfo

GeneralComplete name                  : D:\Coursera\The Science of Meditation (Русские субтитры)\01. Be Holding The Space of the Brain\Part I - How the Brain Constructs our Experience of the World.mp4Format                         : MPEG-4Format profile                 : Base MediaCodec ID                       : isomFile size                      : 97.0 MiBDuration                       : 21mn 13sOverall bit rate mode          : VariableOverall bit rate               : 639 KbpsWriting application            : Lavf54.29.104VideoID                             : 1Format                         : AVCFormat/Info                    : Advanced Video CodecFormat profile                 : High@L3.1Format settings, CABAC         : YesFormat settings, ReFrames      : 2 framesCodec ID                       : avc1Codec ID/Info                  : Advanced Video CodingDuration                       : 21mn 13sBit rate                       : 550 KbpsWidth                          : 640 pixelsHeight                         : 360 pixelsDisplay aspect ratio           : 16:9Frame rate mode                : VariableFrame rate                     : 29.970 fpsMinimum frame rate             : 29.791 fpsMaximum frame rate             : 30.060 fpsColor space                    : YUVChroma subsampling             : 4:2:0Bit depth                      : 8 bitsScan type                      : ProgressiveBits/(Pixel*Frame)             : 0.080Stream size                    : 85.5 MiB (88%)Writing library                : x264 core 129 r2230 1cffe9fEncoding settings              : cabac=1 / ref=2 / deblock=0:0:0 / analyse=0x3:0x113 / me=dia / subme=7 / psy=1 / psy_rd=0.00:0.00 / mixed_ref=0 / me_range=16 / chroma_me=0 / trellis=1 / 8x8dct=1 / cqm=0 / deadzone=21,21 / fast_pskip=1 / chroma_qp_offset=0 / threads=6 / lookahead_threads=1 / sliced_threads=0 / nr=0 / decimate=0 / interlaced=0 / bluray_compat=0 / constrained_intra=0 / bframes=2 / b_pyramid=0 / b_adapt=0 / b_bias=0 / direct=0 / weightb=0 / open_gop=0 / weightp=0 / keyint=500 / keyint_min=100 / scenecut=40 / intra_refresh=0 / rc=abr / mbtree=0 / bitrate=550 / ratetol=1.0 / qcomp=0.60 / qpmin=0 / qpmax=69 / qpstep=4 / ip_ratio=1.40 / pb_ratio=1.30 / aq=0AudioID                             : 2Format                         : AACFormat/Info                    : Advanced Audio CodecFormat profile                 : LCCodec ID                       : 40Duration                       : 21mn 13sBit rate mode                  : VariableBit rate                       : 64.0 KbpsMaximum bit rate               : 128 KbpsChannel(s)                     : 2 channelsChannel positions              : Front: L RSampling rate                  : 44.1 KHzCompression mode               : LossyStream size                    : 9.72 MiB (10%)

Скриншоты

Торрент-файл перезалит 05.06.2015 в 20:03

To download the content you need:
1. Download and install torrent client [for Windows] or for mobile system
2. Click on [Download]
Attention.
If the test YOU are NOT a ROBOT - does not work, then You are using an outdated browser.
Install the current browser and click on [Download]

Do not work with Yandex browser. Uploading files to them is erroneous.
Security: torrent client is allowed by Kaspersky.

[sexgirl.su].t380959.torrent 
Torrent: Registered [ 2017-09-14 22:20 ] · 59802B24CB05FD58A26FD32C4F6F34B4FAD94C01

Download .torrent

Download

17 KB

Status: checked
Completed: 0 times
Size: 1.34 GB
terms.php
[Profile] [PM]
Display posts:    
Reply to topic

Current time is: 29-Oct 23:03

All times are UTC ± 0



You cannot post new topics in this forum
You cannot reply to topics in this forum
You cannot edit your posts in this forum
You cannot delete your posts in this forum
You cannot vote in polls in this forum
You cannot attach files in this forum
You can download files in this forum