Теун Марез - Акт Восприятия и Светящийся Кокон Человека / Theun Mares - The Act of Perception and the Luminous Cocoon of Man [1998, Эзотерика, Учение Толтеков, VHSRip, eng + ENG, rus sub]

Reply to topic
DL-List and Torrent activity
Size:  2.02 GB   |    Registered:  3 years 1 month   |    Completed:  0 times

Seeder not seen: 2 years 5 months

 
   
 
 
Author Message

star21 ®

Gender: Female

Longevity: 4 years 11 months

Posts: 262233

Location: Екатеринбург

Post 14-Sep-2017 22:20

[Quote]

Теун Марез - Акт Восприятия и Светящийся Кокон Человека / Theun Mares - The Act of Perception and the Luminous Cocoon of Man Страна: ЮАР
Год выпуска: 1998
Тематика: Эзотерика, Учение Толтеков
Продолжительность: 00:37:09
Перевод: Субтитры
Язык: Eng
Русские субтитры: перевод - А.Галанина (текст), М.Музыка (пророчество)
язык субтитров: RUS, ENG
Описание: В этом видео объясняется одна из важнейших концепций в нашей жизни – Акт Восприятия.Способ, которым мы воспринимаем всё вокруг нас настолько глубоко лежит в основе нашего существования, что мы принимаем его как данность. Тем не менее, восприятие действительно является тайной.«Акт Восприятия и Светящийся Кокон Человека» раскрывает истинную природу человека, светящегося кокона и точки сборки. В нём описывается то, как происходит восприятие, как взгляд человека на мир определяет и закрепляет его, природа знания, воли и личной силы. Он показывает, что представляют собой эмоции, какова природа их происхождения и воздействия.Это знание может помочь изменить нашу жизнь, ведь однажды узнав и разобравшись как происходит восприятие, мы больше никогда не сможем смотреть на мир как прежде.Качество видео: VHSRip
Формат видео: MKV
Видео: 720x480 (4:3), 29,970 fps, MPEG 2 ~ 7502 kbps avg,0.724 bit/pixel
Аудио: 48 kHz, MP2, 2/0 (L,R) ch, ~ 256 kbps (Английский)Книги автора:
На английском - The Toltec Teachings
Переведённые на русский - Учение Толтеков

Скриншоты

Подробные тех данные

ОбщееУникальный идентификатор                 : 171792568064894789702207229145707922967 (0x813E0B8C10095F51951E48BBC65F4617)Полное имя                               : E:\Theun Mares - The Act of Perception and the Luminous Cocoon of Man (1998)\Theun Mares - The Act of Perception and the Luminous Cocoon of Man (1998).mkvФормат                                   : MatroskaВерсия формата                           : Version 4 / Version 2Размер файла                             : 2,02 ГбайтПродолжительность                        : 37 м. 9 с.Режим общего битрейта                    : ПеременныйОбщий поток                              : 7764 Кбит/секДата кодирования                         : UTC 2016-11-09 10:59:19Программа кодирования                    : mkvmerge v9.5.0 ('Quiet Fire') 64bitБиблиотека кодирования                   : libebml v1.3.4 + libmatroska v1.4.5ВидеоИдентификатор                            : 1Формат                                   : MPEG VideoВерсия формата                           : Version 2Профиль формата                          : Main@MainПараметр BVOP формата                    : ДаПараметр матрицы формата                 : По умолчаниюПараметр GOP формата                     : M=2, N=9Структура изображения                    : FrameИдентификатор кодека                     : V_MPEG2Идентификатор кодека/Информация          : MPEG 1 or 2 VideoПродолжительность                        : 37 м. 9 с.Вид битрейта                             : ПеременныйБитрейт                                  : 7502 Кбит/секМаксимальный битрейт                     : 9000 Кбит/секШирина                                   : 720 пикселейВысота                                   : 480 пикселейСоотношение сторон                       : 4:3Режим частоты кадров                     : ПеременныйЧастота кадров                           : 29,970 (30000/1001) кадров/секСтандарт вещания                         : NTSCЦветовое пространство                    : YUVСубдискретизация насыщенности            : 4:2:0Битовая глубина                          : 8 битТип развёртки                            : ЧересстрочнаяПорядок развёртки                        : Верхнее поле первоеМетод сжатия                             : С потерямиБит/(Пиксели*Кадры)                      : 0.724Временной код первого кадра              : 00:00:00:00Оригинал временного кода                 : Group of pictures headerGOP, открыто/закрыто                     : ЗакрытоРазмер потока                            : 1,95 Гбайт (97%)Default                                  : ДаForced                                   : НетАудиоИдентификатор                            : 2Формат                                   : MPEG AudioВерсия формата                           : Version 1Профиль формата                          : Layer 2Идентификатор кодека                     : A_MPEG/L2Идентификатор кодека/Подсказка           : MP2Продолжительность                        : 37 м. 9 с.Вид битрейта                             : ПостоянныйБитрейт                                  : 256 Кбит/секКаналы                                   : 2 каналаЧастота                                  : 48,0 КГцЧастота кадров                           : 41,667 кадра/сек (1152 spf)Метод сжатия                             : С потерямиРазмер потока                            : 68,0 Мбайт (3%)Заголовок                                : EnglishЯзык                                     : EnglishDefault                                  : НетForced                                   : НетТекст #1Идентификатор                            : 3Формат                                   : ASSИдентификатор кодека                     : S_TEXT/ASSИдентификатор кодека/Информация          : Advanced Sub Station AlphaПродолжительность                        : 36 м. 55 с.Битрейт                                  : 163 бит/секCount of elements                        : 316Метод сжатия                             : Без потерьРазмер потока                            : 44,3 Кбайт (0%)Default                                  : ДаForced                                   : НетТекст #2Идентификатор                            : 4Формат                                   : ASSИдентификатор кодека                     : S_TEXT/ASSИдентификатор кодека/Информация          : Advanced Sub Station AlphaПродолжительность                        : 34 м. 45 с.Битрейт                                  : 105 бит/секCount of elements                        : 310Метод сжатия                             : Без потерьРазмер потока                            : 26,8 Кбайт (0%)Default                                  : НетForced                                   : Нет

To download the content you need:
1. Download and install torrent client [for Windows] or for mobile system
2. Click on [Download]
Attention.
If the test YOU are NOT a ROBOT - does not work, then You are using an outdated browser.
Install the current browser and click on [Download]

Do not work with Yandex browser. Uploading files to them is erroneous.
Security: torrent client is allowed by Kaspersky.

[sexgirl.su].t380948.torrent 
Torrent: Registered [ 2017-09-14 22:20 ] · 6FD939629B339BDDF855512FEE174B7DA7324ACA

Download .torrent

Download

11 KB

Status: checked
Completed: 0 times
Size: 2.02 GB
terms.php
[Profile] [PM]
Display posts:    
Reply to topic

Current time is: 26-Oct 12:23

All times are UTC ± 0



You cannot post new topics in this forum
You cannot reply to topics in this forum
You cannot edit your posts in this forum
You cannot delete your posts in this forum
You cannot vote in polls in this forum
You cannot attach files in this forum
You can download files in this forum