Карлос Кастанеда. Тенсегрити: Все пассы в одном видео / Carlos Castaneda. Tensegrity: All passes in one video [2017, обучающие видео, WEBRip]

Reply to topic
DL-List and Torrent activity
Size:  603 MB   |    Registered:  3 years 1 month   |    Completed:  0 times

Seeder not seen: 8 months 21 day

 
   
 
 
Author Message

star21 ®

Gender: Female

Longevity: 4 years 11 months

Posts: 262233

Location: Екатеринбург

Post 14-Sep-2017 22:20

[Quote]

Карлос Кастанеда. Тенсегрити: Все пассы в одном видео / Carlos Castaneda. Tensegrity: All passes in one video Страна: США
Год выпуска: 2017
Тематика: Обучающие видео
Продолжительность: 01:07:05
Перевод: Не требуется
Русские субтитры: нет
Описание: Данное видео было создано и собрало в себе все пассы, оставленные нам в наследство видящими группы Нагваля дона Хуана Матуса и описанные Карлосом Кастанедой в книге Тенсёгрити. Если книги Кастанеды - это теория, то Тенсёгрити - это практика, путь к абсолютной свободе. Тенсёгрити формирует и развивает наше энергетическое тело, а также останавливает внутренний диалог посредством максимального задействования кинестетической памяти.Доп. информация: Несгибаемое намерение + 12 базовых движений + Перераспределение рассеянной энергии + Энергетический переход от одного биологического типа к другому + Серия мужественности (маскулиная) + Серия разделения левого и правого тела: Разогрев ( серия Тепла) + Вествудская серия (серия пяти интересов) + Дыхание саблезубого тигра + Серия для матки + Серия с приспособлениямиКачество видео: WEBRip
Формат видео: AVI
Видео: ~ 1200 kbps, 720x400 (16:9), 29.970 fps, XviD MPEG-4
Аудио: MP3 | 44.1 KHz | 2 ch | 128 kbps

Отчёт медиаинфо

General
Complete name : D:\Фильмы\Carlos Castaneda Tensegrity.avi
Format : AVI
Format/Info : Audio Video Interleave
File size : 603 MiB
Duration : 1 h 7 min
Overall bit rate : 1 256 kb/s
Writing application : Lavf51.12.1Video
ID : 0
Format : xvid
Codec ID : xvid
Duration : 1 h 7 min
Bit rate : 1 115 kb/s
Width : 720 pixels
Height : 400 pixels
Display aspect ratio : 16:9
Frame rate : 29.970 (30000/1001) FPS
Bits/(Pixel*Frame) : 0.129
Stream size : 535 MiB (89%)Audio
ID : 1
Format : MPEG Audio
Format version : Version 1
Format profile : Layer 3
Mode : Joint stereo
Mode extension : MS Stereo
Codec ID : 55
Codec ID/Hint : MP3
Duration : 1 h 7 min
Bit rate mode : Constant
Bit rate : 128 kb/s
Channel(s) : 2 channels
Sampling rate : 44.1 kHz
Compression mode : Lossy
Stream size : 61.4 MiB (10%)
Alignment : Aligned on interleaves
Interleave, duration : 26 ms (0.78 video frame)
Writing library : LAME3.97

Скриншоты

To download the content you need:
1. Download and install torrent client [for Windows] or for mobile system
2. Click on [Download]
Attention.
If the test YOU are NOT a ROBOT - does not work, then You are using an outdated browser.
Install the current browser and click on [Download]

Do not work with Yandex browser. Uploading files to them is erroneous.
Security: torrent client is allowed by Kaspersky.

[sexgirl.su].t380942.torrent 
Torrent: Registered [ 2017-09-14 22:20 ] · 37BB0182222201DB8F30FAB84EB8151B79064071

Download .torrent

Download

12 KB

Status: checked
Completed: 0 times
Size: 603 MB
terms.php
[Profile] [PM]
Display posts:    
Reply to topic

Current time is: 29-Oct 22:05

All times are UTC ± 0



You cannot post new topics in this forum
You cannot reply to topics in this forum
You cannot edit your posts in this forum
You cannot delete your posts in this forum
You cannot vote in polls in this forum
You cannot attach files in this forum
You can download files in this forum