Топ Гир - Индия (специальный выпуск) / Top Gear - India Special [28.12.2011, Великобритания, Телевизионное авто-шоу, 1080i, HDTV, RUS][Jetvis Studio / FreeVisiOnTV]

Reply to topic
DL-List and Torrent activity
Size:  6.87 GB   |    Registered:  2 years 7 months   |    Completed:  0 times

Seeder not seen: Never

 
   
 
 
Author Message

star21 ®

Gender: Female

Longevity: 3 years 11 months

Posts: 262239

Location: Екатеринбург

Post 12-Mar-2017 08:22

[Quote]

Топ Гир - Индия (специальный выпуск) / Top Gear - India Special
Страна: Великобритания
Режиссер: Энди Уилман
В ролях: Джереми Кларксон, Ричард Хаммонд, Джеймс Мэй
Жанр: Телевизионное авто-шоу
Дата выпуска: 28.12.2011
Продолжительность: 01:28:21
Перевод: Любительский (многоголосый закадровый) Jetvis Studio
Перевод 2: Любительский (многоголосый закадровый) FreeVisiOnTV
Описание: Ведущие отправляются в Индию, чтобы наладить экономические отношения с этой страной. Для путешествия Джереми Кларксон покупает себе Jaguar XJS 1995 года, Ричард Хаммонд покупает Mini Cooper, а Джеймс Мэй — Rolls-Royce Silver Shadow 1976 года.
Доп. описание: По просьбе трудящихся прикрутил к оригиналу 1080i две русских озвучки. Не судите строго, если будут замечания - пишите.
Автор рипа: Я
Качество видео: HDTV
Формат видео: TS
Видео: 1920x1080 at 25.000 fps, MPEG-4 AVC, ~10.16 Mbps avg
Аудио #1: Русский: 48 kHz, AC3, 2/0 (L,R) ch, ~192.00 kbps avg Jetvis Studio
Аудио #2: Русский: 48 kHz, AC3, 2/0 (L,R) ch, ~192.00 kbps avg FreeVisiOnTV
Аудио #3: English: 48 kHz, AC3, 2/0 (L,R) ch, ~192.00 kbps avg

MediaInfo

General #1
    ID : 1 (0x1)
    Complete name :Top.Gear.S17E07.India.Special.1080i.HDTV.H.264.DD2.0_RUS.ts
    Format : MPEG-TS
    File size : 6.87 GiB
    Duration : 1h 28mn
    Overall bit rate : 11.1 Mbps
    Maximum Overall bit rate : 35.5 Mbps
  Video #4113
    ID : 4113 (0x1011)
    Menu ID : 1 (0x1)
    Format : AVC
    Format/Info : Advanced Video Codec
    Format profile : High@L4.0
    Format settings, CABAC : Yes
    Format settings, ReFrames : 4 frames
    Codec ID : 27
    Duration : 1h 28mn
    Bit rate mode : Variable
    Bit rate : 9 990 Kbps
    Maximum bit rate : 40.0 Mbps
    Width : 1 920 pixels
    Height : 1 080 pixels
    Display aspect ratio : 16:9
    Frame rate : 25.000 fps
    Color space : YUV
    Chroma subsampling : 4:2:0
    Bit depth : 8 bits
    Scan type : MBAFF
    Scan order : Top Field First
    Bits/(Pixel*Frame) : 0.193
    Stream size : 6.17 GiB (90%)
    Color primaries : BT.709-5, BT.1361, IEC 61966-2-4, SMPTE RP177
    Transfer characteristics : BT.709-5, BT.1361
    Matrix coefficients : BT.709-5, BT.1361, IEC 61966-2-4 709, SMPTE RP177
  Audio #4352
    ID : 4352 (0x1100)
    Menu ID : 1 (0x1)
    Format : AC-3
    Format/Info : Audio Coding 3
    Mode extension : CM (complete main)
    Codec ID : 129
    Duration : 1h 28mn
    Bit rate mode : Constant
    Bit rate : 192 Kbps
    Channel(s) : 2 channels
    Channel positions : Front: L R
    Sampling rate : 48.0 KHz
    Bit depth : 16 bits
    Compression mode : Lossy
    Delay relative to video : 132ms
    Stream size : 121 MiB (2%)
    Language : Russian
  Audio #4353
    ID : 4353 (0x1101)
    Menu ID : 1 (0x1)
    Format : AC-3
    Format/Info : Audio Coding 3
    Mode extension : CM (complete main)
    Codec ID : 129
    Duration : 1h 28mn
    Bit rate mode : Constant
    Bit rate : 192 Kbps
    Channel(s) : 2 channels
    Channel positions : Front: L R
    Sampling rate : 48.0 KHz
    Bit depth : 16 bits
    Compression mode : Lossy
    Delay relative to video : 255ms
    Stream size : 121 MiB (2%)
    Language : Russian
  Audio #4354
    ID : 4354 (0x1102)
    Menu ID : 1 (0x1)
    Format : AC-3
    Format/Info : Audio Coding 3
    Mode extension : CM (complete main)
    Codec ID : 129
    Duration : 1h 28mn
    Bit rate mode : Constant
    Bit rate : 192 Kbps
    Channel(s) : 2 channels
    Channel positions : Front: L R
    Sampling rate : 48.0 KHz
    Bit depth : 16 bits
    Compression mode : Lossy
    Stream size : 121 MiB (2%)
    Language : English

Скриншоты

To download the content you need:
1. Download and install torrent client [for Windows] or for mobile system
2. Click on [Download]
Attention.
If the test YOU are NOT a ROBOT - does not work, then You are using an outdated browser.
Install the current browser and click on [Download]
Security: torrent client is allowed by Kaspersky.

[sexgirl.su].t316985.torrent 
Torrent: Registered [ 2017-03-12 07:54 ] · 71DAB36666C737E220D1EED787613915D157CFFA

Download .torrent

Download

18 KB

Status: checked
Completed: 0 times
Size: 6.87 GB
terms.php
[Profile] [PM]
Display posts:    
Reply to topic

Current time is: 18-Oct 18:27

All times are UTC ± 0



You cannot post new topics in this forum
You cannot reply to topics in this forum
You cannot edit your posts in this forum
You cannot delete your posts in this forum
You cannot vote in polls in this forum
You cannot attach files in this forum
You can download files in this forum