Топ Гир - Албанское Дорожное Приключение (Режиссерская Версия) / Top Gear - Albanian Road Trip Director\'s Cut [2011, UK, Автошоу, BDRip 720p, ENG SUB]

Reply to topic
DL-List and Torrent activity
Size:  1.46 GB   |    Registered:  2 years 7 months   |    Completed:  0 times

Seeder not seen: Never

 
   
 
 
Author Message

star21 ®

Gender: Female

Longevity: 3 years 11 months

Posts: 262239

Location: Екатеринбург

Post 12-Mar-2017 08:22

[Quote]

Топ Гир - Албанское Дорожное Приключение (Режиссерская Версия)
Top Gear - Albanian Road Trip Director's Cut
Страна: UK
Жанр: Автошоу
Дата выпуска: 2011
Продолжительность: 33:16
Перевод: Отсутствует
Cубтитры: английские
Описание: Ничто не сравнится с Албанией, куда трио ведущих призывает главарь мафии чтобы выбрать лучший автомобиль из: нового Rolls Royce Ghost, Mercedes S Class, и нового Bentley Mulsanne (типа того). В стремлении угодить ребята отправляются на свое самое всестороннее испытание, включающее такие тесты как Мертвый Толстяк в Багажнике и ограбление банка чтобы выбрать лучший автомобиль для бегства с места преступления. Будет ли Джеймс убит в результате последующей погони? Ответ - да. Несомненно!
Режиссерская версия: дополнительные 6 минут.
Семпл: 7o9-tg-great-adventures-v4d2alb-720p-sample.mkv
Автор рипа: 7o9x
Качество видео: BDRip 720p
Формат видео: MKV
Видео: MPEG4 Video (H264) 1280x720 25.00fps 4751 Kbps
Аудио: DTS 48000Hz stereo 1510 Kbps

MediaInfo

General
Unique ID : 230702313912688202335292803623178573864 (0xAD8FA64309324E578DF17B61329D9828)
Complete name : D:\video\mpeg4\TopGear\Special\Upload\Top.Gear.The.Great.Adventures.Vol.4.Albania.Road.Trip.720p.BluRay.x264-7o9x\7o9-tg-great-adventures-v4d2alb-720p.mkv
Format : Matroska
Format version : Version 2
File size : 1.46 GiB
Duration : 33mn 16s
Overall bit rate : 6 263 Kbps
Encoded date : UTC 2011-04-03 08:45:24
Writing application : mkvmerge v4.6.0 ('Still Crazy After All These Years') built on Mar 10 2011 02:50:32
Writing library : libebml v1.2.0 + libmatroska v1.1.0
Video
ID : 1
Format : AVC
Format/Info : Advanced Video Codec
Format profile : High@L4.1
Format settings, CABAC : Yes
Format settings, ReFrames : 5 frames
Codec ID : V_MPEG4/ISO/AVC
Duration : 33mn 16s
Bit rate : 4 751 Kbps
Width : 1 280 pixels
Height : 720 pixels
Display aspect ratio : 16:9
Frame rate : 25.000 fps
Color space : YUV
Chroma subsampling : 4:2:0
Bit depth : 8 bits
Scan type : Progressive
Bits/(Pixel*Frame) : 0.206
Stream size : 1.08 GiB (74%)
Writing library : x264 core 114 r1924 08d04a4
Encoding settings : cabac=1 / ref=5 / deblock=1:0:0 / analyse=0x3:0x133 / me=umh / subme=7 / psy=1 / psy_rd=1.00:0.00 / mixed_ref=1 / me_range=16 / chroma_me=1 / trellis=1 / 8x8dct=1 / cqm=0 / deadzone=21,11 / fast_pskip=0 / chroma_qp_offset=-2 / threads=12 / sliced_threads=0 / nr=0 / decimate=1 / interlaced=0 / constrained_intra=0 / bframes=3 / b_pyramid=2 / b_adapt=1 / b_bias=0 / direct=1 / weightb=1 / open_gop=0 / weightp=2 / keyint=250 / keyint_min=25 / scenecut=40 / intra_refresh=0 / rc_lookahead=40 / rc=2pass / mbtree=1 / bitrate=4751 / ratetol=1.0 / qcomp=0.60 / qpmin=0 / qpmax=69 / qpstep=4 / cplxblur=20.0 / qblur=0.5 / ip_ratio=1.40 / aq=1:1.00
Language : English
Default : Yes
Forced : No
Audio
ID : 2
Format : DTS
Format/Info : Digital Theater Systems
Codec ID : A_DTS
Duration : 33mn 16s
Bit rate mode : Constant
Bit rate : 1 510 Kbps
Channel(s) : 2 channels
Channel positions : Front: L R
Sampling rate : 48.0 KHz
Bit depth : 24 bits
Compression mode : Lossy
Stream size : 359 MiB (24%)
Language : English
Default : Yes
Forced : No

Скриншоты

To download the content you need:
1. Download and install torrent client [for Windows] or for mobile system
2. Click on [Download]
Attention.
If the test YOU are NOT a ROBOT - does not work, then You are using an outdated browser.
Install the current browser and click on [Download]
Security: torrent client is allowed by Kaspersky.

[sexgirl.su].t316981.torrent 
Torrent: Registered [ 2017-03-12 07:54 ] · 5535FBB4D3759C64EEF2B954C413C4A68652698F

Download .torrent

Download

15 KB

Status: checked
Completed: 0 times
Size: 1.46 GB
terms.php
[Profile] [PM]
Display posts:    
Reply to topic

Current time is: 18-Oct 19:17

All times are UTC ± 0



You cannot post new topics in this forum
You cannot reply to topics in this forum
You cannot edit your posts in this forum
You cannot delete your posts in this forum
You cannot vote in polls in this forum
You cannot attach files in this forum
You can download files in this forum